Subcategories

Tori Amos - Gold Dust (2012) [Official Digital Download 24bit/96kHz] RE-UP

Posted By: HDV
Tori Amos - Gold Dust (2012) [Official Digital Download 24bit/96kHz] RE-UP

Tori Amos - Gold Dust (2012)
FLAC (tracks) 24 bit/96 kHz | Time - 61:13 minutes | 1,33 GB
Studio Master, Official Digital Download | Artwork: Digital Booklet

In Tori Amos’ twenty-year career, the artist has won various awards, touched the lives of millions of fans, performed thousands of shows around the world and sold over twelve million records worldwide. To commemorate this milestone, Tori Amos has revisited a collection of hits spanning her entire catalogue. Produced by Amos with arrangements by John Philip Shenale, the album features her classics songs, recorded with the esteemed Metropole Orchestra. Each track, personally selected by Amos, is reworked for an orchestral setting; standouts include “Precious Things,” “Silent All These Years” and “Winter.” The music is timeless and Amos remains one of the strongest female vocalists in music history.

The release of Gold Dust was inevitable, and was recorded to celebrate the 20th anniversary of the release of Little Earthquakes, the album that established Tori Amos as one of, if not the, singer/songwriters of her generation. Here she revisits songs from her catalog backed by the famed Metropole Orchestra conducted by Jules Buckley. Amos recorded live with the orchestra in the Netherlands, making it a greatest-hits comp with a twist. It works. The songs keep their inherent melodies and basic arrangements, and the Metropole Orchestra underscores the inherent drama in them without overwhelming them (no easy feat). While everyone will have her favorites – or be disappointed about those that have been left out – the arc of the album works quite well. Songs like "Marianne" and "Yes Anastasia" are as direct and compelling as ever. The title track, with its elegiac intro, is more elaborate, yet never gives in to excess. "Precious Things" is, if anything, more militant, even as it proclaims "let these precious things be." The gospel feel in the chords that introduce "Snow Cherries from France" are quickly supplanted by a near-theatrical feel. The set closes with "Girl Disappearing" from American Doll Posse. In this arrangement, subtler shades of meaning are coaxed from the lyric by the orchestra and by more elaborate piano flourishes from Amos. Gold Dust is another of Amos' dreams realized – to record live with an orchestra – and it is most certainly for her dedicated fans, who will no doubt find elements in these new versions to enjoy.

Tracklist:

01 - Flavor
02 - Yes, Anastasia
03 - Jackie's Strength
04 - Cloud On My Tongue
05 - Precious Things
06 - Gold Dust
07 - Star Of Wonder
08 - Winter
09 - Flying Dutchman
10 - Programmable Soda
11 - Snow Cherries From France
12 - Marianne
13 - Silent All These Years
14 - Girl Disappearing

Analyzed: Tori Amos / Gold Dust
––––––––––––––––––––––––––––––––––––––––

DR Peak RMS Duration Track
––––––––––––––––––––––––––––––––––––––––
DR10 -0.12 dB -12.21 dB 4:07 01-Flavor
DR10 -0.03 dB -12.38 dB 4:19 02-Yes, Anastasia
DR9 -0.12 dB -11.68 dB 4:34 03-Jackie's Strength
DR10 -0.12 dB -13.38 dB 4:24 04-Cloud On My Tongue
DR9 -0.12 dB -12.64 dB 4:47 05-Precious Things
DR10 -0.12 dB -13.13 dB 5:47 06-Gold Dust
DR9 0.00 dB -11.04 dB 3:48 07-Star Of Wonder
DR10 -0.12 dB -13.85 dB 5:47 08-Winter
DR9 -0.12 dB -12.44 dB 6:21 09-Flying Dutchman
DR11 -0.12 dB -13.69 dB 1:28 10-Programmable Soda
DR10 -0.03 dB -12.86 dB 3:02 11-Snow Cherries From France
DR10 -0.12 dB -13.51 dB 4:10 12-Marianne
DR11 -0.13 dB -14.57 dB 4:35 13-Silent All These Years
DR10 -0.12 dB -14.24 dB 4:04 14-Girl Disappearing
––––––––––––––––––––––––––––––––––––––––

Number of tracks: 14
Official DR value: DR10

Samplerate: 96000 Hz
Channels: 2
Bits per sample: 24
Bitrate: 2850 kbps
Codec: FLAC
================================================================================


Thanks to the Original customer!

More Hi-Res from Tori