Train - My Private Nation (2003) [2.0 & 5.1] PS3 ISO + Hi-Res FLAC {RE-UP}

Posted By: HDAtall
Train - My Private Nation (2003) [2.0 & 5.1] PS3 ISO + Hi-Res FLAC {RE-UP}

Train - My Private Nation (2003)
PS3 Rip | SACD ISO | DSD64/DST64 2.0 & 5.1 > 1-bit/2.8224 MHz | 42:36 minutes | Scans included | 3,79 GB
or FLAC 2.0 (converted with foobar2000 to tracks) 24bit/88,2 kHz | 43:10 mins | Scans included | 1,1 GB

Train is building a reputation as one of rock's tightest outfits one single at a time. The clever and sweet "Meet Virginia" was eclipsed by the gorgeous "Drops of Jupiter." My Private Nation may well prove these guys can squeeze more than one hit out of the album–although none are as enchanting as their breakthrough single. They continue to gravitate toward Elton John-inspired keys-and-guitar arrangements that are marked by studied rhythms and stellar production. While there's inventiveness to be found in these songs, there's a sameness to the tracks that makes the album as a whole fall a little flat. While attempting to recapture the grandeur of "Drops of Jupiter" on the opening song, "Calling All Angels," they overreach, and the pop-culture references scattered throughout date almost instantly. My Private Nation is a clean, intelligent disc, but it's also safe and middle of the road. Train's fans would be richly rewarded if the band took a few more risks.

Train - My Private Nation (2003) [2.0 & 5.1] PS3 ISO + Hi-Res FLAC {RE-UP}

Following a hit is a tough thing for any band, and for Train, a cult band that literally came out of nowhere to land a monster single like "Drops of Jupiter" and a platinum album to boot, the pressure to deliver something "more" from label execs is intense. In addition, usually when a band decides to scrap its plans for one album and go back to the drawing board and do something else, it doesn't bode well for the finished product. Train has turned the tables on the redo jinx. Creatively, My Private Nation, Train's third album, is the moment this band has worked for since it started making records. Bringing Brendan O'Brien back on board as producer (perhaps the best rock producer out there right now) and as a co-writer on three songs, Train has upped the aesthetic ante by stripping away any notion that it has to prove that it is "sincere" as a band. The songs speak for themselves. The opening track, "Calling All Angels," which also serves as the first single, is the one song the Counting Crows wish they could still write. It's a huge rock song that signifies what the rest of the album elaborates on. Guitars, drums, backwards tracking of keyboards, and a huge chorus make it an anthem. But it's not so much how hooky and beautiful the tune is – and is it ever – as what it says: That in a time of great confusion, loss, and disorientation, one does not call for redemption, but asks for a sign of inspiration, for the courage to not surrender to despair. It's a tome about hope against the odds, acknowledging vulnerability, and accepting responsibility to remain focused and critical enough to win one's own redemption in everyday life, in order to become a better human being.

Other tracks – "All American Girl," "Save the Day," and the title track – may not feel as benevolent, especially the ones where O'Brien collaborates. These take on pop culture, social malaise, the pretension of honesty, and the selling of everything, and skewer them with acidic wit, huge monstrous guitars, and sonic architectures that defy description other than they make great rock & roll. Pat Monahan and Train don't pretend to speak for anyone; they speak about themselves in relating to the externals and internals of existence in the new century. These things include relating to each other, to their culture and generation, and to the world at large. In order to accomplish this without merely sounding the obvious, a certain degree of intimacy has to be given up in the mix, and "When I Look to the Sky," "Get to Me," "Following Rita," and the closing "I'm About to Come Alive" (one of the more honest love songs written outside of soul and country music in a decade) do just that. Under O'Brien's gorgeous multi-layered production with guitars coming from everywhere (remember how big he made Springsteen's sound on The Rising?) and strings floating and darting through the mix, chromatic shadings and the textures of contemporary psychedelia are rooted in the heart of an ambitious garage band. In other words, O'Brien doesn't make the band sound big, he gets the sound of how big Train actually is in a context that is as aurally beautiful musically as it is emotionally and lyrically poignant. My Private Nation is not an album about angst, but about transcending it and the paralyzing cynicism that goes with it. The question is, when was the last time listeners got a rock & roll album that could do that without cowering in fear of having its optimism shattered? Not in a long time. But that's because My Private Nation isn't about optimism; it's about the flickering glimmer in the darkness, in the heart, in the culture, in the world, and how it should – and can – be seized, right now.

Tracklist:

01. Calling All Angels
02. All American Girl
03. When I Look To The Sky
04. Save The Day
05. My Private Nation
06. Get To Me
07. Counting Airplanes
08. Following Rita
09. Your Every Color
10. Lincoln Avenue
11. I'm About To Come Alive

foobar2000 1.2.6 / Dynamic Range Meter 1.1.1

––––––––––––––––––––––––––––––––––––––––
Analyzed: Train / My Private Nation
––––––––––––––––––––––––––––––––––––––––

DR Peak RMS Duration Track
––––––––––––––––––––––––––––––––––––––––
DR12 0.00 dB -13.07 dB 3:56 01-Calling All Angels
DR10 0.00 dB -11.97 dB 3:15 02-All American Girl
DR12 0.00 dB -13.21 dB 4:05 03-When I Look To The Sky
DR12 0.00 dB -12.70 dB 4:04 04-Save The Day
DR11 0.00 dB -12.88 dB 3:23 05-My Private Nation
DR12 0.00 dB -13.91 dB 3:50 06-Get To Me
DR11 0.00 dB -14.15 dB 4:21 07-Counting Airplanes
DR10 0.00 dB -12.45 dB 3:44 08-Following Rita
DR11 0.00 dB -13.66 dB 4:26 09-Your Every Color
DR11 0.00 dB -13.94 dB 3:36 10-Lincoln Avenue
DR12 0.00 dB -13.08 dB 3:56 11-I'm About To Come Alive
––––––––––––––––––––––––––––––––––––––––

Number of tracks: 11
Official DR value: DR11

Samplerate: 2822400 Hz / PCM Samplerate: 176400 Hz
Channels: 6
Bits per sample: 24
Bitrate: 16934 kbps
Codec: DST64
================================================================================

––––––––––––––––––––––––––––––––––––––––
Analyzed: Train / My Private Nation
––––––––––––––––––––––––––––––––––––––––

DR Peak RMS Duration Track
––––––––––––––––––––––––––––––––––––––––
DR6 0.00 dB -7.73 dB 4:02 01-Calling All Angels
DR5 0.00 dB -6.11 dB 3:17 02-All American Girl
DR6 0.00 dB -7.26 dB 4:05 03-When I Look To The Sky
DR6 0.00 dB -8.10 dB 4:05 04-Save The Day
DR6 0.00 dB -7.66 dB 3:22 05-My Private Nation
DR7 0.00 dB -9.15 dB 4:05 06-Get To Me
DR7 0.00 dB -8.52 dB 4:21 07-Counting Airplanes
DR6 0.00 dB -7.33 dB 3:45 08-Following Rita
DR6 0.00 dB -7.37 dB 4:26 09-Your Every Color
DR5 0.00 dB -7.66 dB 3:37 10-Lincoln Avenue
DR6 0.00 dB -8.75 dB 4:06 11-I'm About To Come Alive
––––––––––––––––––––––––––––––––––––––––

Number of tracks: 11
Official DR value: DR6

Samplerate: 2822400 Hz / PCM Samplerate: 176400 Hz
Channels: 2
Bits per sample: 24
Bitrate: 5645 kbps
Codec: DSD64


Uncompressed SACD ISO size > 3,25 GB
>
SACD ISO 1
SACD ISO 2
SACD ISO 3
SACD ISO 4
SACD ISO 4

FLAC 1 (Stereo)
FLAC 2 (Stereo)
>