Trouble Hunting - Somebody Else With A Wrong Dog (2017) [Official Digital Download 24-bit/96kHz]

Posted By: HDV
Trouble Hunting - Somebody Else With A Wrong Dog (2017) [Official Digital Download 24-bit/96kHz]

Trouble Hunting - Somebody Else With A Wrong Dog (2017)
FLAC (tracks) 24-bit/96 kHz | Time - 40:02 minutes | 924 MB
Studio Master, Official Digital Download | Artwork: Front cover

Trouble Hunting is a Polish-Danish quintet started in October 2010 in Odense. The band performs music of Tomasz Licak. Compositions are inspired by the wide-ranging contemporary music, from jazz to classical. An important role in the work of Trouble Hunting is improvisation - not only performed by soloists but also "compositional" and collective. This gives the band's music original sound and special, unique stylistic consistency. Music of Trouble Hunting is full of contrasts, both minimalistic and rich, narrative, and running away into abstraction.

Tomasz Licak is a hyper productive artist, who always looks for new inspirations and journeys into the unknown and despite the fact that the base of his musicianship lies strongly in jazz, efficiently and with passion moves in many styles from avant-garde improv through beats to instrumental progressive rock. His passion both in playing and composition is the surprise and curiosity, which allows being constantly inspired and send a steady stream of creative energy to the world.

Tracklist:

01 - Even More Unexpected Fruit
02 - Well-balanced Robbery
03 - Illegal Flower Cutting
04 - Somebody Else With a Wrong Dog
05 - What Happened to Your Lion?
06 - Subconsciousness Is Not a Radio Station
07 - And Now What?

Musicians:
Tomasz Licak – tenor sax, clarinet
Sven Dam Meinild – alto, tenor sax
Tomasz Dąbrowski – trumpet, balkan horn
Richard Andresson – bass
Kasper Tom Christiansen - drums


Analyzed: Trouble Hunting / Somebody Else With a Wrong Dog
––––––––––––––––––––––––––––––––––––––––

DR Peak RMS Duration Track
––––––––––––––––––––––––––––––––––––––––
DR12 -0.30 dB -15.45 dB 8:55 01-Even More Unexpected Fruit
DR13 -0.30 dB -14.20 dB 5:57 02-Well-balanced Robbery
DR13 -0.30 dB -15.23 dB 4:56 03-Illegal Flower Cutting
DR11 -0.30 dB -15.17 dB 6:37 04-Somebody Else With a Wrong Dog
DR12 -0.31 dB -16.48 dB 6:28 05-What Happened to Your Lion?
DR10 -4.37 dB -17.86 dB 1:43 06-Subconsciousness Is Not a Radio Station
DR11 -0.30 dB -13.65 dB 5:26 07-And Now What?
––––––––––––––––––––––––––––––––––––––––

Number of tracks: 7
Official DR value: DR12

Samplerate: 96000 Hz
Channels: 2
Bits per sample: 24
Bitrate: 3194 kbps
Codec: FLAC
================================================================================


Thanks to the Original customer!