Tags
Language
Tags
December 2022
Su Mo Tu We Th Fr Sa
27 28 29 30 1 2 3
4 5 6 7 8 9 10
11 12 13 14 15 16 17
18 19 20 21 22 23 24
25 26 27 28 29 30 31

Twisted Sister - Come Out And Play (1985/2017) [Official Digital Download 24-bit/192kHz]

Posted By: HDV
Twisted Sister - Come Out And Play (1985/2017) [Official Digital Download 24-bit/192kHz]

Twisted Sister - Come Out And Play (1985/2017)
FLAC (tracks) 24-bit/192 kHz | Time - 46:03 minutes | 1,8 GB
FLAC (tracks) 24-bit/96 kHz | Time - 46:03 minutes | 1,03 GB
Studio Master, Official Digital Download | Artwork: Front cover

"Come Out And Play" is the follow up to the monstrous "Stay Hungry" album that catapulted Twisted Sister to the masses. The album includes a number of stylistic diversions, including a lighthearted cover of the '50s standard "Leader of the Pack", and a song in which several non-heavy metal stars (Billy Joel, Brian Setzer, among others) are featured, "Be Chrool to Your Scuel". There are also songs that are reminiscent of the band's heavy metal past, like the title track and "Kill Or Be Killed".

Twisted Sister were left in a strange position after the massive breakthrough success of their 1984 album, Stay Hungry. While the album contained more of a pop edge than their more raw preceding albums (Under the Blade and You Can't Stop Rock n' Roll), the heavy metal masses worldwide still embraced the album, as did the the lucrative MTV/pop audience. So for its follow-up, the band was faced with a question: whether to continue in a more pop-oriented direction or return to its early heavy metal. As the resulting album, 1985's Come Out and Play, proved, the band pursued a little bit of both. Behind the boards was Scorpions/Accept producer Dieter Dierks, and the compositions alternated between the ambitious (the title track), obvious ready-for-radio tracks (a cover of "Leader of the Pack," "Be Chrool to Your Scuel"), and songs custom-made for headbangers ("The Fire Still Burns," "Kill or Be Killed"). The aforementioned "Be Chrool to Your Scuel" contained such musical guests as Alice Cooper, Billy Joel, Clarence Clemons, and Brian Setzer, for which a humorous video was filmed, and ultimately banned by MTV. And although the album was certified gold shortly after its release, it soon slid from sight – eventually leading to Twisted Sister's demise a few years later.

Tracklist:

01 - Come Out And Play
02 - Leader Of The Pack
03 - You Want What We Got
04 - I Believe In Rock And Roll
05 - The Fire Still Burns
06 - Be Chrool To Your Scuel
07 - I Believe In You
08 - Out On The Streets
09 - Lookin' Out For #1
10 - Kill Or Be Killed
11 - King Of The Fools

Digitally Remastered.

Analyzed: Twisted Sister / Come Out And Play
––––––––––––––––––––––––––––––––––––––––

DR Peak RMS Duration Track
––––––––––––––––––––––––––––––––––––––––
DR10 -0.10 dB -12.92 dB 4:52 01-Come Out And Play
DR10 -0.10 dB -11.71 dB 3:47 02-Leader Of The Pack
DR10 -0.10 dB -11.72 dB 3:44 03-You Want What We Got
DR10 -0.10 dB -12.72 dB 4:03 04-I Believe In Rock And Roll
DR9 -0.10 dB -10.95 dB 3:33 05-The Fire Still Burns
DR10 -0.01 dB -11.90 dB 3:54 06-Be Chrool To Your Scuel
DR10 -0.10 dB -12.29 dB 5:23 07-I Believe In You
DR10 -0.10 dB -12.35 dB 4:27 08-Out On The Streets
DR9 -0.10 dB -10.42 dB 3:07 09-Lookin' Out For #1
DR9 -0.10 dB -11.06 dB 2:46 10-Kill Or Be Killed
DR10 -0.10 dB -11.71 dB 6:25 11-King Of The Fools
––––––––––––––––––––––––––––––––––––––––

Number of tracks: 11
Official DR value: DR10

Samplerate: 192000 Hz
Channels: 2
Bits per sample: 24
Bitrate: 5476 kbps
Codec: FLAC
================================================================================


Thanks to the Original customer!