Tags
Language
Tags
December 2022
Su Mo Tu We Th Fr Sa
27 28 29 30 1 2 3
4 5 6 7 8 9 10
11 12 13 14 15 16 17
18 19 20 21 22 23 24
25 26 27 28 29 30 31

Twisted Sister - Under The Blade (1982/2017) [Official Digital Download 24-bit/192kHz]

Posted By: HDV
Twisted Sister - Under The Blade (1982/2017) [Official Digital Download 24-bit/192kHz]

Twisted Sister - Under The Blade (1982/1985/2017)
FLAC (tracks) 24-bit/192 kHz | Time - 40:00 minutes | 1,62 GB
FLAC (tracks) 24-bit/96 kHz | Time - 40:00 minutes | 933 MB
Studio Master, Official Digital Download | Artwork: Front cover

"Under the Blade" is the debut studio album by American heavy metal band Twisted Sister, released on Secret Records on September 18, 1982. It featured a very brutal and rough sound, which was eventually totally ignored on a remixed re-release by Atlantic Records on July 14, 1985. Features bonus track "I'll Never Grow Up, Now".

Although Twisted Sister had been slugging it out on the New York-area bar/club scene for nearly a decade by the early '80s (developing a large following in the process), no major record label would sign the act. Noticing that England was in the midst of a heavy metal resurgence (dubbed the New Wave of British Heavy Metal), the quintet moved over to the U.K., where they recorded their debut album, Under the Blade, issued in 1982 on the independent Secret Records. UFO bassist Pete Way produced the album, which featured many of the band's best compositions from their club days. The chilling title track remains one of the band's best and has became a perennial concert favorite, while other metallic highlights include the opening "What You Don't Know (Sure Can Hurt You)," "Sin After Sin," "Shoot 'Em Down," and "Tear It Loose." The band also brings the volume down a notch or two with the slow-burning tracks "Run for Your Life" and "Destroyer," while the 1999 CD reissue on Spitfire included a bonus track not on the original record ("I'll Never Grow Up Now!"). Under the Blade remains one of Twisted Sister's hardest rocking albums and is highly recommended to lovers of early-'80s British heavy metal.

Tracklist:

01 - What You Don't Know (Sure Can Hurt You)
02 - Bad Boys (Of Rock 'N' Roll)
03 - Run For Your Life
04 - Sin After Sin
05 - Shoot 'Em Down
06 - Destroyer
07 - Under The Blade
08 - Tear It Loose
09 - I'll Never Grow Up, Now!
10 - Day Of The Rocker

Digitally Remastered.

Analyzed: Twisted Sister / Under The Blade
––––––––––––––––––––––––––––––––––––––––

DR Peak RMS Duration Track
––––––––––––––––––––––––––––––––––––––––
DR9 -0.10 dB -10.96 dB 4:46 01-What You Don't Know (Sure Can Hurt You)
DR10 -0.10 dB -11.67 dB 3:20 02-Bad Boys (Of Rock 'N' Roll) [Remastered Version]
DR10 -0.10 dB -12.65 dB 3:28 03-Run For Your Life
DR10 -0.10 dB -11.43 dB 3:23 04-Sin After Sin
DR10 -0.10 dB -11.94 dB 3:55 05-Shoot 'Em Down
DR11 -0.10 dB -12.85 dB 4:10 06-Destroyer
DR10 -0.10 dB -12.75 dB 4:40 07-Under The Blade
DR10 -0.10 dB -10.97 dB 3:08 08-Tear It Loose
DR10 -0.10 dB -11.55 dB 4:09 09-I'll Never Grow Up, Now!
DR11 -0.10 dB -13.41 dB 5:02 10-Day Of The Rocker
––––––––––––––––––––––––––––––––––––––––

Number of tracks: 10
Official DR value: DR10

Samplerate: 192000 Hz
Channels: 2
Bits per sample: 24
Bitrate: 5624 kbps
Codec: FLAC
================================================================================


Thanks to the Original customer!