U.K. - Danger Money (1979) [Japanese Limited SHM-SACD 2014] PS3 ISO + Hi-Res FLAC

Posted By: HDAtall
U.K. - Danger Money (1979) [Japanese Limited SHM-SACD 2014] PS3 ISO + Hi-Res FLAC

U.K. - Danger Money (1979) [Japanese Limited SHM-SACD 2014]
PS3 Rip | SACD ISO | DSD64 2.0 > 1-bit/2.8224 MHz | 46:01 minutes | Scans included | 1,32 GB
or FLAC(converted with foobar2000 to tracks) 24bit/96 kHz | Full Scans included | 1.09 GB

U.K. are a British progressive rock supergroup originally active from 1977 until 1980. The band was composed of singer/bassist John Wetton (formerly of King Crimson, Roxy Music, Bryan Ferry's band and Uriah Heep), keyboardist/electric violinist Eddie Jobson (formerly of Curved Air, Roxy Music and Frank Zappa's band), guitarist Allan Holdsworth (formerly of Tempest, Soft Machine, The New Tony Williams Lifetime and Gong) and drummer Bill Bruford (formerly a full member of Yes and King Crimson, and also a tour drummer for Genesis), later replaced by drummer Terry Bozzio (formerly of Frank Zappa's band).

The follow-up album has Terry Bozzio taking over the drumming. It features exceptional synth work by Eddie Jobson and bass and vocals from John Wetton.

Tracklist:

01. Danger Money
02. Rendevouz 6:02
03. The Only Thing She Needs
04. Caesar's Palace Blues
05. Nothing To Lose
06. Carrying No Cross
07. Rendezvous 6:02 [Single Version]

DSD flat transferred from U.K. original analogue master tapes.
Edited in DSD by Manabu Matsumura at Universal Music Studios, Tokyo, in 2014.

foobar2000 1.4.3 / Dynamic Range Meter 1.1.1

––––––––––––––––––––––––––––––––––––––––
Analyzed: U.K. / Danger Money
––––––––––––––––––––––––––––––––––––––––

DR Peak RMS Duration Track
––––––––––––––––––––––––––––––––––––––––
DR12 -4.38 dB -18.88 dB 8:15 01-Danger Money
DR11 -4.93 dB -19.68 dB 5:00 02-Rendevouz 6:02
DR12 -4.65 dB -17.94 dB 7:54 03-The Only Thing She Needs
DR12 -5.24 dB -18.75 dB 4:45 04-Caesar's Palace Blues
DR11 -5.11 dB -18.34 dB 3:57 05-Nothing To Lose
DR12 -5.10 dB -19.85 dB 12:23 06-Carrying No Cross
DR13 -4.94 dB -21.52 dB 3:47 07-Rendezvous 6:02 - Single Version
––––––––––––––––––––––––––––––––––––––––

Number of tracks: 7
Official DR value: DR12

Samplerate: 2822400 Hz / PCM Samplerate: 176400 Hz
Channels: 2
Bits per sample: 1
Bitrate: 5645 kbps
Codec: DSD64


Thanks to PS³SACD!
Uncompressed SACD ISO size > 1,85 GB
>