U.K. - Night After Night (1979) [Japanese Limited SHM-SACD 2014] PS3 ISO + Hi-Res FLAC

Posted By: HDAtall
U.K. - Night After Night (1979) [Japanese Limited SHM-SACD 2014] PS3 ISO + Hi-Res FLAC

U.K. - Night After Night (1979) [Japanese Limited SHM-SACD 2014]
PS3 Rip | SACD ISO | DSD64 2.0 > 1-bit/2.8224 MHz | 45:35 minutes | Scans included | 1,3 GB
or FLAC(converted with foobar2000 to tracks) 24bit/96 kHz | Full Scans included | 1,08 GB

U.K. are a British progressive rock supergroup originally active from 1977 until 1980. The band was composed of singer/bassist John Wetton (formerly of King Crimson, Roxy Music, Bryan Ferry's band and Uriah Heep), keyboardist/electric violinist Eddie Jobson (formerly of Curved Air, Roxy Music and Frank Zappa's band), guitarist Allan Holdsworth (formerly of Tempest, Soft Machine, The New Tony Williams Lifetime and Gong) and drummer Bill Bruford (formerly a full member of Yes and King Crimson, and also a tour drummer for Genesis), later replaced by drummer Terry Bozzio (formerly of Frank Zappa's band).

The third and final record by the progressive rock trio U.K. was recorded during a 1979 concert in Japan, although it was not released until after the group disbanded; by this time the group featured bassist and lead vocalist John Wetton with ex-Zappa sidemen Eddie Jobson (keyboards and electric violin) and drummer Terry Bozzio. "Night After Night" serves a driving opener, followed by "Rendezvous 6:02," primarily a feature for Jobson's keyboard wizardry. The instrumental "Alaska" is a bit bombastic on the scale of Emerson, Lake & Palmer, though the hard-rocking "In the Dead of Night" makes up for it. Jobson switches to violin for the high-energy closer, "Caesar's Palace Blues" (which is not actually a blues). This is easily the best of U.K.'s rather small discography.

Tracklist:

01. Night After Night
02. Rendezvous 6:02
03. Nothing To Lose
04. As Long As You Want Me Here
05. Alaska
06. Time To Kill
07. Presto Vivace And Reprise
08. In The Dead Of Night
09. Caeser's Palace Blues
10. When Will You Realize

DSD flat transferred from U.K. original analogue master tapes.
Edited in DSD by Manabu Matsumura at Universal Music Studios, Tokyo, in 2014.

foobar2000 1.4.3 / Dynamic Range Meter 1.1.1

––––––––––––––––––––––––––––––––––––––––
Analyzed: U.K. / Night After Night
––––––––––––––––––––––––––––––––––––––––

DR Peak RMS Duration Track
––––––––––––––––––––––––––––––––––––––––
DR13 -5.35 dB -20.02 dB 5:23 01-Night After Night
DR13 -5.41 dB -22.17 dB 5:17 02-Rendezvous 6:02
DR13 -5.84 dB -20.55 dB 5:26 03-Nothing To Lose
DR11 -6.51 dB -20.87 dB 5:07 04-As Long As You Want Me Here
DR10 -8.06 dB -21.55 dB 2:20 05-Alaska
DR12 -5.90 dB -20.23 dB 6:12 06-Time To Kill
DR12 -6.66 dB -20.63 dB 1:02 07-Presto Vivace And Reprise
DR11 -6.54 dB -19.66 dB 6:22 08-In The Dead Of Night
DR11 -6.56 dB -19.43 dB 5:02 09-Caeser's Palace Blues
DR12 -6.10 dB -20.49 dB 3:25 10-When Will You Realize
––––––––––––––––––––––––––––––––––––––––

Number of tracks: 10
Official DR value: DR12

Samplerate: 2822400 Hz / PCM Samplerate: 176400 Hz
Channels: 2
Bits per sample: 1
Bitrate: 5645 kbps
Codec: DSD64


Thanks to PS³SACD!
Uncompressed SACD ISO size > 1,83 GB
>