Unpertregroup - More... Dedicated To Pat Metheny & Lyle Mays (2011/2015) [Official Digital Download 24/96]

Posted By: HDV
Unpertregroup - More... Dedicated To Pat Metheny & Lyle Mays (2011/2015) [Official Digital Download 24/96]

Unpertregroup - More… Dedicated To Pat Metheny & Lyle Mays (2011/2015)
FLAC (tracks) 24-bit/96 kHz | Time - 54:09 minutes | 1,13 GB
Studio Master, Official Digital Download | Artwork: Front cover

The Sicilian trio Unpertregroup have released "more… Dedicated to Pat Metheny and Lyle Mays" for the Italian label AlfaMusic. After their first release (“Il canto della sirena”), the group has once again taken to the road of jazz-fusion mixed with sounds, colors and flavors of their native Sciacca in southern Sicily.

The first track picks up where the previous CD left off: “Sunrise again” continues the musical thought of the final track (“Breathing..a sunset”) creating wide open spaces worthy of a Sicilian dawn.

“Coreia (tango)” combines the darkness of a tango with the jazz harmonies characteristic of the group’s compositions giving room for the soloists to stretch out.

The mysterious electronics which open “Behind your eyes” soon give way to deep sounds creating an atmosphere with counterpoints between the various instruments. The melody and sounds open like veils that are discovering the hidden side of a girl, that at the end release the tension created beforehand with a laughter.

“Day of Sicily” is just that, starting with sounds typical of the island. And, as a Sicilian day, it is comprised of various parts. First, we have the voice of Cristina Cannella adding to the colors and then a theme with the muted trumpet of Stefano Soldano echoes the atmosphere of Sicilian landscapes. Cristina returns as does Stefano with room to express themselves. The trio then winds things down as the day draws to a close with a collage of the sounds of a religious procession village.

The only non-original composition “Vitti ‘na crozza” is one of the most popular Sicilian songs. It’s an anti-war song (the title means “I saw a skull”) and this brief rendition is quite moving.

Antonio Barone gives ample space to his talents as composer and guitarist in his “Many times along the way” with a long exposition before the other members of the trio join in. He even displays prowess as a soloist on the acoustic bass.

Light percussion sounds accompany the airy “Restless”, clearly inspired by the sounds of the duo Pat Metheny and Lyle Mays complete with the voices of Aldo Misuraca and Martino Messana during the finale.

The final track “It’s almost evening”, written by Giuseppe Raso, features his keyboard playing along with guest artist Giuseppe Cusumano on soprano sax. The two converse freely for the entire piece, painting a picture representing the sunset of life.

Tracklist:

01 - Sunrise Again
02 - Coreia
03 - Behind Your Eyes
04 - Day Of Sicily
05 - Vitti 'na crozza
06 - Many Times Along The Way
07 - Restless
08 - It's Almost Evening

Musicians:
Antonio Barone - Acoustic, Electric & Synth Guitar, Acoustic Bass
Aldo Misuraca - Drums, Percussions
Giuseppe Raso - Piano, Keybords, Vibes, Marimba

Guest Players:
Stefano Soldano - Trumpet on "4"
Cristina Cannella - Vocal om "4"
Martino Messana - Vocal on "7"
Giuseppe Cusumano - Alto Sax on "8"


Analyzed: Unpertregroup / More… Dedicated To Pat Metheny & Lyle Mays
––––––––––––––––––––––––––––––––––––––––

DR Peak RMS Duration Track
––––––––––––––––––––––––––––––––––––––––
DR11 -0.10 dB -14.09 dB 6:32 01-Sunrise Again
DR12 -1.75 dB -15.65 dB 6:16 02-Coreia
DR9 -1.20 dB -13.64 dB 6:08 03-Behind Your Eyes
DR9 -1.03 dB -13.76 dB 10:49 04-Day Of Sicily
DR12 -2.01 dB -18.15 dB 2:30 05-Vitti 'na crozza
DR10 -0.29 dB -13.50 dB 8:35 06-Many Times Along The Way
DR10 0.00 dB -12.48 dB 6:12 07-Restless
DR9 -2.16 dB -13.97 dB 7:06 08-It's Almost Evening
––––––––––––––––––––––––––––––––––––––––

Number of tracks: 8
Official DR value: DR10

Samplerate: 96000 Hz
Channels: 2
Bits per sample: 24
Bitrate: 2820 kbps
Codec: FLAC
================================================================================


Thanks to the Original customer!