VA - Five Songbirds: A Reference Collection Of Female Vocalists (2004) PS3 ISO + Hi-Res FLAC

Posted By: HDAtall
VA - Five Songbirds: A Reference Collection Of Female Vocalists (2004) PS3 ISO + Hi-Res FLAC

VA - Five Songbirds: A Reference Collection Of Female Vocalists (2004)
PS3 Rip | SACD ISO | DST64 2.0 > 1-bit/2.8224 MHz | 63:28 minutes | Front/Rear Covers | 1,02 GB
or FLAC (converted with foobar2000 to tracks) 24bit/96 kHz | Front/Rear Covers | 1,4 GB
First Impression Music # FIM SACD 048

A compilation release from the First Impression Music. If you're appreciate clear and powerful female voices that sung the traditional tunes or classic ballads performed by vocalists commonly referred to as "torch singers", this disc for you.

Tracklist:

01. Esther Ofarims - Kinderspiele
02. Patricia Barber - A Taste of Honey
03. Jacintha - Danny Boy
04. Ayako Hosokawa - That Sunday (That Summer)
05. Marie Nakamoto - Georgia On My Mind
06. Jacintha - Somewhere Over The Rainbow
07. Ayako Hosokawa - Darling, Je Vous Aime Beaucoup/La Vie En Rose
08. Esther Ofarims - Una Matica de Ruda
09. Patricia Barber - The Best Goes On
10. Ayako Hosakawa - Tears In Heaven
11. Jacintha - Autumn Leaves
12. Marie Nakamoto - What A Difference A Day Made

foobar2000 1.4.8 / Dynamic Range Meter 1.1.1

––––––––––––––––––––––––––––––––––––––––
Analyzed: Ayako Hosokawa / Five Songbirds
––––––––––––––––––––––––––––––––––––––––

DR Peak RMS Duration Track
––––––––––––––––––––––––––––––––––––––––
DR10 -5.73 dB -19.27 dB 3:39 04-That Sunday (That Summer)
DR10 -5.41 dB -19.64 dB 4:37 07-Darling, Je Vous Aime Beaucoup/La Vie En Rose
DR13 -4.94 dB -22.12 dB 4:55 10-Tears In Heaven
––––––––––––––––––––––––––––––––––––––––

Number of tracks: 3
Official DR value: DR12

Samplerate: 2822400 Hz / PCM Samplerate: 176400 Hz
Channels: 2
Bits per sample: 1
Bitrate: 5645 kbps
Codec: DST64
================================================================================

––––––––––––––––––––––––––––––––––––––––
Analyzed: Esther Ofarims / Five Songbirds
––––––––––––––––––––––––––––––––––––––––

DR Peak RMS Duration Track
––––––––––––––––––––––––––––––––––––––––
DR12 -6.57 dB -23.45 dB 3:12 01-Kinderspiele
DR10 -6.49 dB -20.68 dB 3:08 08-Una Matica de Ruda
––––––––––––––––––––––––––––––––––––––––

Number of tracks: 2
Official DR value: DR11

Samplerate: 2822400 Hz / PCM Samplerate: 176400 Hz
Channels: 2
Bits per sample: 1
Bitrate: 5645 kbps
Codec: DST64
================================================================================

––––––––––––––––––––––––––––––––––––––––
Analyzed: Jacintha / Five Songbirds
––––––––––––––––––––––––––––––––––––––––

DR Peak RMS Duration Track
––––––––––––––––––––––––––––––––––––––––
DR12 -6.35 dB -22.86 dB 7:26 03-Danny Boy
DR13 -7.35 dB -24.80 dB 9:44 06-Somewhere Over The Rainbow
DR15 -7.13 dB -25.46 dB 7:45 11-Autumn Leaves
––––––––––––––––––––––––––––––––––––––––

Number of tracks: 3
Official DR value: DR13

Samplerate: 2822400 Hz / PCM Samplerate: 176400 Hz
Channels: 2
Bits per sample: 1
Bitrate: 5645 kbps
Codec: DST64
================================================================================

––––––––––––––––––––––––––––––––––––––––
Analyzed: Marie Nakamoto / Five Songbirds
––––––––––––––––––––––––––––––––––––––––

DR Peak RMS Duration Track
––––––––––––––––––––––––––––––––––––––––
DR10 -6.55 dB -20.38 dB 5:15 05-Georgia On My Mind
DR10 -6.54 dB -20.06 dB 3:41 12-What A Difference A Day Made
––––––––––––––––––––––––––––––––––––––––

Number of tracks: 2
Official DR value: DR10

Samplerate: 2822400 Hz / PCM Samplerate: 176400 Hz
Channels: 2
Bits per sample: 1
Bitrate: 5645 kbps
Codec: DST64
================================================================================

––––––––––––––––––––––––––––––––––––––––
Analyzed: Patricia Barber / Five Songbirds
––––––––––––––––––––––––––––––––––––––––

DR Peak RMS Duration Track
––––––––––––––––––––––––––––––––––––––––
DR16 -4.01 dB -26.14 dB 4:30 02-A Taste of Honey
DR12 -6.21 dB -22.32 dB 5:36 09-The Best Goes On
––––––––––––––––––––––––––––––––––––––––

Number of tracks: 2
Official DR value: DR14

Samplerate: 2822400 Hz / PCM Samplerate: 176400 Hz
Channels: 2
Bits per sample: 1
Bitrate: 5645 kbps
Codec: DST64

Thanks to the Original ripper!
Uncompressed SACD ISO size > 988 MB
>