Various Artists - 80's Love (2014) PS3 ISO + Hi-Res FLAC

Posted By: HDAtall
Various Artists - 80's Love (2014) PS3 ISO + Hi-Res FLAC

Various Artists - 80's Love (2014)
PS3 Rip | SACD ISO | DST64 2.0 > 1-bit/2.8224 MHz | 69:06 minutes | Scans included | 1,23 GB
or FLAC(converted with foobar2000 to tracks) 24bit/44,1 kHz | Full Scans included | 846 MB

Tracklist:

01. Whitney Houston – Saving All My Love For You
02. Air Supply – All Out Of Love
03. Paul Young – Everytime You Go Away
04. Cyndi Lauper – Time After Time
05. Dan Fogelberg – Longer
06. Bonnie Tyler – Total Eclipse of the Heart
07. Earth, Wind & Fire – After The Love Has Gone
08. Gloria Estefan – Don’t Wanna Lose You
09. The Bangles – Eternal Flame
10. Michael Bolton – How Am I Supposed to Live Without You
11. Billy Ocean – Suddenly
12. REO Speedwagon – Can’t Fight This Feeling
13. Jennifer Rush – The Power Of Love
14. Jermaine Jackson – Lonely Won’t Leave Me Alone
15. Johnny Logan – Hold Me Now (Clean Version)
16. Rick Astley – When I Fall in Love

foobar2000 1.4.3 / Dynamic Range Meter 1.1.1

––––––––––––––––––––––––––––––––––––––––
Analyzed: Billy Ocean/ Keith Diamond / 80's Love (1)
Candy De Rouge/ Guenther Mende / 80's Love (2)
Cyndi Lauper/ Rob Hyman / 80's Love (3)
D. James/ M. Bolton / 80's Love (4)
Dan Fogelberg/ Daniel Fogelberg / 80's Love (5)
Daryl Hall / 80's Love (6)
David Foster/ Jay Graydon/ Bill Champlin / 80's Love (7)
G. Estefan / 80's Love (8)
Graham Russel/ Clive Davis / 80's Love (9)
Heyman/ Young / 80's Love (10)
Jermain Jackson/ David Foster/ Tome Keane/ Kathy Wakefield / 80's Love (11)
Jim Steinman / 80's Love (12)
Johnny Logan / 80's Love (13)
Kevin Cronin / 80's Love (14)
Michael Masser/ Gerry Goffin / 80's Love (15)
Susanna Hoffs/ Billy Steinberg/ Tom Kelly / 80's Love (16)
––––––––––––––––––––––––––––––––––––––––

DR Peak RMS Duration Track
––––––––––––––––––––––––––––––––––––––––
DR8 -6.02 dB -17.45 dB 3:50 11-Suddenly
DR9 -6.32 dB -18.14 dB 5:54 13-The Power Of Love
DR10 -6.57 dB -18.68 dB 4:00 04-Time After Time
DR9 -6.61 dB -18.73 dB 4:14 10-How Am I Supposed to Live Without You
DR10 -6.05 dB -19.30 dB 3:15 05-Longer
DR13 -6.22 dB -20.87 dB 5:24 03-Everytime You Go Away
DR10 -5.72 dB -18.92 dB 4:25 07-After The Love Has Gone
DR12 -6.01 dB -20.90 dB 4:09 08-Don't Wanna Lose You
DR10 -6.39 dB -18.83 dB 3:51 02-All Out Of Love
DR12 -6.11 dB -20.47 dB 3:02 16-When I Fall in Love
DR8 -6.09 dB -17.04 dB 4:31 14-Lonely Won't Leave Me Alone
DR10 -6.78 dB -19.98 dB 6:58 06-Total Eclipse of the Heart
DR10 -6.31 dB -20.28 dB 3:01 15-Hold Me Now (Clean Version)
DR12 -5.91 dB -19.87 dB 4:50 12-Can't Fight This Feeling
DR7 -6.18 dB -16.69 dB 3:46 01-Saving All My Love For You
DR10 -6.23 dB -18.90 dB 3:54 09-Eternal Flame
––––––––––––––––––––––––––––––––––––––––

Number of tracks: 16
Official DR value: DR10

Samplerate: 2822400 Hz / PCM Samplerate: 88200 Hz
Channels: 2
Bits per sample: 24
Bitrate: 5645 kbps
Codec: DST64


Thanks to PS³SACD!
Uncompressed SACD ISO size > 1,15 GB
>