VA - American Heartbeat 1961 (2014/2015) [Official Digital Download]

Posted By: HDV
VA - American Heartbeat 1961 (2014/2015) [Official Digital Download]

VA - American Heartbeat 1961 (2014/2015)
FLAC (tracks) 24-bit/44,1 kHz | Time - 124:11 minutes | 1,32 GB
Studio Master, Official Digital Download | Artwork: Front cover

In 1961 a new era was dawning with John F. Kennedy taking office, it was also the year Brylcreem-coiffed young guns like Dion, Ricky Nelson and Bobby Vee all gave Elvis and Roy a run for their money. The year may have ended on a negative note with the conflict in North Vietnam, but in pop 1961 was definitely another winner. Featured artists include Dion, Jimmy Dean, Ral Donner, Roy Orbison, Elvis Presley, Clarence 'Frogman' Henry, Bobby Vee, Chris Kenner, Del Shannon, Brenda Lee, The Jive Five, Ricky Nelson, The Marcels, Bobby Lewis, The Capris, Shep And The Limelites, Connie Francis and many others.

Tracklist:

01. Dion - Runaround Sue
02. Ray Charles - Hit The Road Jack
03. Jimmy Dean - Big Bad John
04. Ral Donner - You Don't Know What You've Got (Until You Lose It)
05. The Drifters - Please Stay
06. Roy Orbison - Crying
07. Van Dyke Leroy - Walk On By
08. Dick & Dee Dee - The Mountain's High
09. Elvis Presley - (Marie's The Name) His Latest Flame
10. Chubby Checker - Pony Time
11. Gene McDaniels - A Hundred Pounds Of Clay
12. Ernie K. Doe - Mother-In-Law
13. Clarence Frogman Henry - (I Don't Know Why) But I Do
14. The Mar Keys - Last Night
15. Please Mr. Postman
16. The Shirelies - You Still Love Me Tomorrow
17. Bobby Vee - Run To Him
18. Patsy Cline - Crazy
19. Adam Wade - The Writing On The Wall
20. The Tokens - The Lion Sleeps Tonight
21. Lawrence Welk & His Orchestra - Calcutta
22. Joe Dowell - Wooden Heart
23. Gary U.S. Bonds - Quarter To Three
24. Chris Kenner - I Like It Like That (Part 1)
25. Floyd Cramer - On The Rebound
26. Bobby Vee - [Take Good Care Of My Baby
27. Del Shannon - Runaway
28. Roy Orbison - Running Scared
29. Brenda Lee - Fool No. 1
30. Jorgen Ingmann - Apache
31. Dee Clark - Raindrops
32. Elvis Presley - Surrender
33. The Highwaymen - Michael (Row The Boat Ashore)
34. Gary U.S. Bonds - School Is Out
35. The Jive Five - My True Story
36. Ricky Nelson - Travelin' Man
37. The Marcels - Blue Moon
38. The Shirelles - Dedicated To The One I Love
39. The Miracles - Shop Around
40. Bobby Lewis - Tossin' & Turnin'
41. Pat Boone - Moody River
42. The Capris - There's A Moon Out Tonight
43. The Dovells - Bristol Stomp
44. Shep & The Limelites - Daddy's Home
45. James Darren - Goodbye Cruel World
46. Marty Robbins - Don't Worry
47. Elvis Presley - I Feel So Bad
48. The String A Lomgs - Wheels
49. Brook Benton - The Boll Weevil Song
50. Connie Francis - Together

Analyzed: Adam Wade / American Heartbeat 1961 (1)
Bobby Lewis / American Heartbeat 1961 (2)
Bobby Vee / American Heartbeat 1961 (3-4)
Brenda Lee / American Heartbeat 1961 (5)
Brook Benton / American Heartbeat 1961 (6)
Chris Kenner / American Heartbeat 1961 (7)
Chubby Checker / American Heartbeat 1961 (8)
Clarence Frogman Henry / American Heartbeat 1961 (9)
Connie Francis / American Heartbeat 1961 (10)
Dee Clark / American Heartbeat 1961 (11)
Del Shannon / American Heartbeat 1961 (12)
Dick & Dee Dee / American Heartbeat 1961 (13)
Dion / American Heartbeat 1961 (14)
Elvis Presley / American Heartbeat 1961 (15-17)
Ernie K. Doe / American Heartbeat 1961 (18)
Floyd Cramer / American Heartbeat 1961 (19)
Gary U.S. Bonds / American Heartbeat 1961 (20-21)
Gene McDaniels / American Heartbeat 1961 (22)
James Darren / American Heartbeat 1961 (23)
Jimmy Dean / American Heartbeat 1961 (24)
Joe Dowell / American Heartbeat 1961 (25)
Jorgen Ingmann / American Heartbeat 1961 (26)
Lawrence Welk & His Orchestra / American Heartbeat 1961 (27)
Marty Robbins / American Heartbeat 1961 (28)
Pat Boone / American Heartbeat 1961 (29)
Patsy Cline / American Heartbeat 1961 (30)
Ral Donner / American Heartbeat 1961 (31)
Ray Charles / American Heartbeat 1961 (32)
Ricky Nelson / American Heartbeat 1961 (33)
Roy Orbison / American Heartbeat 1961 (34-35)
Shep & The Limelites / American Heartbeat 1961 (36)
The Capris / American Heartbeat 1961 (37)
The Dovells / American Heartbeat 1961 (38)
The Drifters / American Heartbeat 1961 (39)
The Highwaymen / American Heartbeat 1961 (40)
The Jive Five / American Heartbeat 1961 (41)
The Mar Keys / American Heartbeat 1961 (42)
The Marcels / American Heartbeat 1961 (43)
The Marvelettes / American Heartbeat 1961 (44)
The Miracles / American Heartbeat 1961 (45)
The Shirelies / American Heartbeat 1961 (46)
The Shirelles / American Heartbeat 1961 (47)
The String A Lomgs / American Heartbeat 1961 (48)
The Tokens / American Heartbeat 1961 (49)
Van Dyke Leroy / American Heartbeat 1961 (50)
––––––––––––––––––––––––––––––––––––––––

DR Peak RMS Duration Track
––––––––––––––––––––––––––––––––––––––––
DR9 0.00 dB -12.51 dB 2:31 19-The Writing On The Wall
DR8 -0.45 dB -9.22 dB 2:21 40-Tossin' & Turnin'
DR10 0.00 dB -11.80 dB 2:10 17-Run To Him
DR10 0.00 dB -12.09 dB 2:41 26-Take Good Care Of My Baby
DR8 -0.03 dB -9.73 dB 2:28 29-Fool No. 1
DR12 -0.37 dB -14.92 dB 2:42 49-The Boll Weevil Song
DR11 0.00 dB -13.53 dB 2:16 24-I Like It Like That (Part 1)
DR9 0.00 dB -9.85 dB 2:30 10-Pony Time
DR8 0.00 dB -8.97 dB 2:21 13-(I Don't Know Why) But I Do
DR11 0.00 dB -13.39 dB 2:56 50-Together
DR10 0.00 dB -11.26 dB 2:40 31-Raindrops
DR10 0.00 dB -11.94 dB 2:22 27-Runaway
DR10 -0.07 dB -11.89 dB 2:18 08-The Mountain's High
DR9 -0.02 dB -10.40 dB 2:40 01-Runaround Sue
DR11 0.00 dB -12.47 dB 2:07 09-(Marie's The Name) His Latest Flame
DR9 -0.06 dB -10.86 dB 1:55 32-Surrender
DR9 -0.16 dB -11.58 dB 2:55 47-I Feel So Bad
DR11 0.00 dB -12.88 dB 2:31 12-Mother-In-Law
DR10 -0.08 dB -12.34 dB 2:10 25-On The Rebound
DR11 -0.03 dB -12.17 dB 2:36 23-Quarter To Three
DR7 -0.80 dB -9.14 dB 2:29 34-School Is Out
DR11 0.00 dB -13.72 dB 2:23 11-A Hundred Pounds Of Clay
DR8 -0.02 dB -9.18 dB 2:23 45-Goodbye Cruel World
DR9 0.00 dB -10.46 dB 3:02 03-Big Bad John
DR11 0.00 dB -12.24 dB 2:06 22-Wooden Heart
DR9 0.00 dB -11.33 dB 2:59 30-Apache
DR11 0.00 dB -11.99 dB 2:15 21-Calcutta
DR11 -0.01 dB -12.21 dB 3:13 46-Don't Worry
DR9 -0.01 dB -10.94 dB 2:33 41-Moody River
DR11 0.00 dB -13.41 dB 2:46 18-Crazy
DR11 -0.01 dB -13.10 dB 2:13 04-You Don't Know What You've Got (Until You Lose It)
DR9 0.00 dB -11.55 dB 2:00 02-Hit The Road Jack
DR10 0.00 dB -11.88 dB 2:23 36-Travelin' Man
DR10 -0.02 dB -14.11 dB 2:48 06-Crying
DR8 0.00 dB -11.49 dB 2:14 28-Running Scared
DR7 0.00 dB -9.42 dB 2:47 44-Daddy's Home
DR9 0.00 dB -10.74 dB 2:14 42-There's A Moon Out Tonight
DR8 0.00 dB -9.48 dB 2:21 43-Bristol Stomp
DR12 -0.07 dB -14.46 dB 2:19 05-Please Stay
DR10 -0.70 dB -13.90 dB 2:47 33-Michael (Row The Boat Ashore)
DR9 -0.01 dB -10.00 dB 2:35 35-My True Story
DR7 -0.01 dB -9.23 dB 2:37 14-Last Night
DR10 0.00 dB -11.94 dB 2:21 37-Blue Moon
DR11 -0.04 dB -12.34 dB 2:34 15-Please Mr. Postman
DR7 -0.24 dB -9.40 dB 2:50 39-Shop Around
DR9 0.00 dB -10.83 dB 2:43 16-Will You Still Love Me Tomorrow
DR8 -0.01 dB -10.89 dB 2:02 38-Dedicated To The One I Love
DR12 0.00 dB -14.00 dB 1:56 48-Wheels
DR8 0.00 dB -9.77 dB 2:42 20-The Lion Sleeps Tonight
DR11 0.00 dB -12.36 dB 2:24 07-Walk On By
––––––––––––––––––––––––––––––––––––––––

Number of tracks: 50
Official DR value: DR10

Samplerate: 44100 Hz
Channels: 2
Bits per sample: 24
Bitrate: 1527 kbps
Codec: FLAC
================================================================================


Thanks to the Original customer!