VA - American Heartbeat 1962 (2014/2015) [Official Digital Download]

Posted By: HDV
VA - American Heartbeat 1962 (2014/2015) [Official Digital Download]

VA - American Heartbeat 1962 (2014/2015)
FLAC (tracks) 24-bit/44,1 kHz | Time - 132:11 minutes | 1,44 GB
Studio Master, Official Digital Download | Artwork: Front cover

In 1962 Elvis was still king and retained his status as the top recording artist with a string of hits like 'Return To Sender', and 'Can't Help Falling In Love'. Male solo acts like Roy Orbison, Rick Nelson and Dion also maintained their chart supremacy with hits Dream Baby, Young World and The Wanderer, all included on this superb 2 disc compilation. Featured artists includes The Beach Boys, Elvis Presley, Dion, Roy Orbison, Tommy Roe, Freddy Cannon, Brenda Lee, Johnny Tillotson, The Tornados, Rick Nelson, Connie Francis and many others.

Tracklist:

01. The Beach Boys - Surfin Safari
02. The Four Seasons - Big Girls Don't Cry
03. Little Eva - The Loco-Motion
04. Elvis Presley - Return to Sender
05. Ray Charles - I Can't Stop Loving You
06. Dion - The Wanderer
07. Roy Orbison - Dream Baby (How Long Must I Dream)
08. The Sensations - Let Me in
09. Tommy Roe - Sheila
10. The Crystals - He's a Rebel
11. Freddy Cannon - Palisades Park
12. Gene Pitney - Only Love Can Break a Heart
13. Claudine Clark - Party Lights
14. Neil Sedaka - Breaking Up is Hard to Do
15. Bobby Vinton - Roses Are Red (My Love)
16. Kenny Ball & His Jazzmen - Midnight in Moscow
17. Joey Dee & The Starliters - Peppermint Twist (Part 1)
18. Ray Stevens - Ahab The Arab
19. Brenda Lee - All Alone Am I
20. The Kingston Trio - Where Have All the Flowers Gone
21. Barbara George - I Know (You Don't Love Me No More)
22. Frank Ifield - I Remember You
23. Brian Hyland - Sealed With a Kiss
24. Johnny Tillotson - It Keeps Right On A-Hurtin'
25. Elvis Presley - Can't Help Falling in Love
26. Booker T. & The MG's - Green Onions
27. The Exciters - Tell Him
28. Bobby Darin - Things
29. The Tornados - Telstar
30. The Four Seasons - Sherry
31. Gene Chandler - Duke of Earl
32. Neil Sedaka - Next Door to an Angel
33. The Contours - Do You Love Me
34. Sue Thompson - Norman
35. Chubby Checker - Limbo Rock
36. Nat King Cole - Ramblin' Rose
37. The Orlons - The Wah-Watusi
38. Elvis Presley - Good Luck Charm
39. Ray Charles - You Don't Know Me
40. Marcie Blane - Bobby's Girl
41. Rick Nelson - Young World
42. Acker Bilk - Stranger on the Shore
43. Dee Dee Sharp - Mashed Potato Time
44. Chubby Checker & Dee Dee Sharp - Slow Twistin'
45. Bobby "Boris" Pickett & The Crypt Kickers - Monster Mash
46. Bruce Channel - Hey! Baby
47. Shelley Fabares - Johnny Angel
48. David Rose & His Orchestra - The Stripper
49. The Shirelles - Soldier Boy
50. Connie Francis - Don't Break the Heart that Loves You

Analyzed: Acker Bilk / American Heartbeat 1962 (1)
Barbara George / American Heartbeat 1962 (2)
Bobby "Boris" Pickett & The Crypt Kickers / American Heartbeat 1962 (3)
Bobby Darin / American Heartbeat 1962 (4)
Bobby Vinton / American Heartbeat 1962 (5)
Booker T. & The MG's / American Heartbeat 1962 (6)
Brenda Lee / American Heartbeat 1962 (7)
Brian Hyland / American Heartbeat 1962 (8)
Bruce Channel / American Heartbeat 1962 (9)
Chubby Checker & Dee Dee Sharp / American Heartbeat 1962 (10)
Chubby Checker / American Heartbeat 1962 (11)
Claudine Clark / American Heartbeat 1962 (12)
Connie Francis / American Heartbeat 1962 (13)
David Rose & His Orchestra / American Heartbeat 1962 (14)
Dee Dee Sharp / American Heartbeat 1962 (15)
Dion / American Heartbeat 1962 (16)
Elvis Presley / American Heartbeat 1962 (17-19)
Frank Ifield / American Heartbeat 1962 (20)
Freddy Cannon / American Heartbeat 1962 (21)
Gene Chandler / American Heartbeat 1962 (22)
Gene Pitney / American Heartbeat 1962 (23)
Joey Dee & The Starliters / American Heartbeat 1962 (24)
Johnny Tillotson / American Heartbeat 1962 (25)
Kenny Ball & His Jazzmen / American Heartbeat 1962 (26)
Little Eva / American Heartbeat 1962 (27)
Marcie Blane / American Heartbeat 1962 (28)
Nat King Cole / American Heartbeat 1962 (29)
Neil Sedaka / American Heartbeat 1962 (30-31)
Ray Charles / American Heartbeat 1962 (32-33)
Ray Stevens / American Heartbeat 1962 (34)
Rick Nelson / American Heartbeat 1962 (35)
Roy Orbison / American Heartbeat 1962 (36)
Shelley Fabares / American Heartbeat 1962 (37)
Sue Thompson / American Heartbeat 1962 (38)
The Beach Boys / American Heartbeat 1962 (39)
The Contours / American Heartbeat 1962 (40)
The Crystals / American Heartbeat 1962 (41)
The Exciters / American Heartbeat 1962 (42)
The Four Seasons / American Heartbeat 1962 (43-44)
The Kingston Trio / American Heartbeat 1962 (45)
The Orlons / American Heartbeat 1962 (46)
The Sensations / American Heartbeat 1962 (47)
The Shirelles / American Heartbeat 1962 (48)
The Tornados / American Heartbeat 1962 (49)
Tommy Roe / American Heartbeat 1962 (50)
––––––––––––––––––––––––––––––––––––––––

DR Peak RMS Duration Track
––––––––––––––––––––––––––––––––––––––––
DR9 -0.01 dB -11.64 dB 3:04 42-Stranger on the Shore
DR13 0.00 dB -14.83 dB 2:28 21-I Know (You Don't Love Me No More)
DR9 0.00 dB -10.90 dB 3:14 45-Monster Mash
DR8 -0.01 dB -9.06 dB 2:34 28-Things
DR8 0.00 dB -10.41 dB 2:40 15-Roses Are Red (My Love)
DR9 0.00 dB -10.08 dB 2:54 26-Green Onions
DR8 0.00 dB -10.16 dB 2:45 19-All Alone Am I
DR7 -0.36 dB -8.90 dB 2:38 23-Sealed With a Kiss
DR10 -0.05 dB -11.53 dB 2:23 46-Hey! Baby
DR9 0.00 dB -10.66 dB 2:32 44-Slow Twistin'
DR10 0.00 dB -11.96 dB 2:25 35-Limbo Rock
DR9 0.00 dB -10.32 dB 2:23 13-Party Lights
DR10 -0.09 dB -14.14 dB 3:05 50-Don't Break the Heart that Loves You
DR9 0.00 dB -10.39 dB 1:58 48-The Stripper
DR7 0.00 dB -8.90 dB 2:33 43-Mashed Potato Time
DR11 0.00 dB -12.58 dB 2:45 06-The Wanderer
DR13 0.00 dB -15.26 dB 2:06 04-Return to Sender
DR8 0.00 dB -9.38 dB 3:01 25-Can't Help Falling in Love
DR9 0.00 dB -9.74 dB 2:23 38-Good Luck Charm
DR9 0.00 dB -11.44 dB 2:04 22-I Remember You
DR9 0.00 dB -9.23 dB 1:52 11-Palisades Park
DR12 -0.09 dB -13.67 dB 2:32 31-Duke of Earl
DR10 0.00 dB -11.78 dB 2:52 12-Only Love Can Break a Heart
DR10 0.00 dB -11.57 dB 2:02 17-Peppermint Twist (Part 1)
DR8 0.00 dB -10.03 dB 2:49 24-It Keeps Right On A-Hurtin'
DR11 0.00 dB -12.03 dB 3:00 16-Midnight in Moscow
DR7 -0.62 dB -9.45 dB 2:25 03-The Loco-Motion
DR6 -1.31 dB -9.25 dB 2:18 40-Bobby's Girl
DR8 -0.08 dB -9.17 dB 2:51 36-Ramblin' Rose
DR9 0.00 dB -10.94 dB 2:19 14-Breaking Up is Hard to Do
DR10 -0.02 dB -11.58 dB 2:28 32-Next Door to an Angel
DR12 0.00 dB -14.95 dB 4:13 05-I Can't Stop Loving You
DR11 0.00 dB -13.73 dB 3:15 39-You Don't Know Me
DR10 0.00 dB -12.49 dB 3:35 18-Ahab The Arab
DR9 -0.08 dB -10.57 dB 2:24 41-Young World
DR8 0.00 dB -10.58 dB 2:35 07-Dream Baby (How Long Must I Dream)
DR8 0.00 dB -9.91 dB 2:20 47-Johnny Angel
DR10 -0.01 dB -11.34 dB 2:24 34-Norman
DR7 -0.37 dB -9.05 dB 2:06 01-Surfin Safari
DR8 -0.08 dB -9.42 dB 2:55 33-Do You Love Me
DR8 -0.20 dB -9.67 dB 2:33 10-He's a Rebel
DR12 0.00 dB -14.57 dB 2:38 27-Tell Him
DR12 0.00 dB -14.62 dB 2:25 02-Big Girls Don't Cry
DR7 -1.37 dB -9.36 dB 2:38 30-Sherry
DR8 -0.25 dB -10.31 dB 3:04 20-Where Have All the Flowers Gone
DR11 -0.06 dB -11.97 dB 2:30 37-The Wah-Watusi
DR10 0.00 dB -10.83 dB 3:06 08-Let Me in
DR11 -0.05 dB -14.43 dB 2:42 49-Soldier Boy
DR8 -0.07 dB -9.39 dB 3:18 29-Telstar
DR8 0.00 dB -8.51 dB 2:05 09-Sheila
––––––––––––––––––––––––––––––––––––––––

Number of tracks: 50
Official DR value: DR9

Samplerate: 44100 Hz
Channels: 2
Bits per sample: 24
Bitrate: 1446 kbps
Codec: FLAC
================================================================================


Thanks to the Original customer!

American Heartbeat 1957
American Heartbeat 1958
American Heartbeat 1959
American Heartbeat 1960
American Heartbeat 1961