VA - From Europe with Jazz (1972/2014) [Official Digital Download 24/88]

Posted By: HDV
VA - From Europe with Jazz (1972/2014) [Official Digital Download 24/88]

VA - From Europe with Jazz (1972/2014)
FLAC (tracks) 24-bit/88,2 kHz | Time - 40:02 minutes | 782 MB
Studio Master, Official Digital Download | Artwork: Front cover

This 1972 production is a potpourri of “live” festival big bands, starring some of the greatest jazz musicians of the time: the Nordic All-Stars with Norwegian saxophonist Jan Garbarek of ECM fame, Poland’s Novi Singers and the Zurich International Festival All-Stars including Dexter Gordon and Art Farmer. These timeless performances sound as fresh today as when they were first recorded.

There are lots of surprises on this 1972 production. It’s a potpourri of “live” festival big bands with some of the greatest jazz musicians of the time. First off, the Nordic All-Stars. Danish composer-trumpeter Palle Mikkelborg’s composition “Salamanderdans” demonstrates why he is one of jazz’s great contemporary composers. On the piece, Norwegian saxophonist Jan Garbarek of ECM fame is surrounded by the best from the North. Ear-opening early Garbarek. Poland’s Novi Singers follow. On “Next Please”, a scintillating mixture of modern and experimental illustrate why they have attained cult status. Next, the Zurich International Festival All-Stars, read like a who’s who of European and American jazz. Dexter Gordon, Don Byas, Art Farmer, and Albert Mangelsdorff are just a few of the greats. George Grunz’s arrangement of Ornette Coleman’s “Lonely Woman” creates a symphonic hue to this classic ballad. Lastly, “Sigo’s Garden” an extravagant piece of greenery as Boško Petrović & the Non-convertible Eastern All-Stars race through the undergrowth. The music sounds as fresh today as it was then.

Tracklist:

01. Nordic All-Stars - Salamanderdans
02. Novi Singers - Next Please
03. Zurich International Festival All-Stars - Lonely Woman
04. Boško Petrović Quintet & Non-convertible Eastern All-Stars - Sigo's Garden

Recorded at the Festivals of Södertälje, Zürich and Ljubljana.
Digitally Remastered.


Track 1: Salamanderdans (Palle Mikkelborg) - Nordic All-Stars
Jan Garbarek ts, cl, fl; Terje Rypdal, g; Jon Christensen, dr (Norway); Juhani Aaltonen, ts, as, fl; Heikki Sarmanto, p; Seppo Paakunainen, bs, fl (Finland); Bertil Lövgren, tp; Palle Danielsson, b; OIl. Holmquist, tb, tuba (Sweden); Palle Mikkelborg, tp, flh; Allan Botschinsky, tp; Jesper Thilo, cl, ts, as, ss, bcl, cbcl, fl (Denmark)

Track 2: Next Please (Bernard Kawka) - NOVI Singers
Ewa Wanat, Janusz Mych, Bernard Kawka, Waldemar Parzynski (Poland)

Track 3: Lonely Woman (Ornette Coleman, arr. G. Gruntz) - Zurich International Festival All-Stars
Art Farmer, tp (USA); Benny Bailey, tp (USA); Dusko Goykovich, tp (Yugoslavia); Franco Ambrosetti, tp (Switzerland); Slide Hampton, tb (USA); Jiggs Whigham, tb (USA); Albert Mangelsdorff, tb (Germany); Ake Persson, tb (Sweden); Herb Geller, as, oboe (USA); Leo Wright, as (USA); Dexter Gordon, ts (USA); Don Byas, ts (USA); Sahib Shihab, bs (USA); Heinz Bigler, as (Switzerland); lsla Eckinger, b (Switzerland); Tony lnzalaco, dr (USA); George Gruntz, p, el.p (Switzerland).

Track 4: Sigo’s Garden (Boško Petrović) - Boško Petrović Quintet & the Non-convertible Eastern All-Stars
Simeon Sterev, fl (Bulgaria); Jiri Stivin, fl, as (Czechoslovakia); Dan Mindrila, ts (Roumania); Zbigniev Seifert, .1. v (Poland); Salko Mujicic, fl; Ozren Depolo, as; Brane Zivkovic, p, organ, fl; Miljenko Prohaska, b; Ratko Divjak, dr; Boško Petrović, v, marimba, tarabuka drum (Yugoslavia)


Analyzed: Bosko Petrovic Quintet & Non-convertible Eastern All-Stars / From Europe with Jazz (1)
Nordic All-Stars / From Europe with Jazz (2)
Novi Singers / From Europe with Jazz (3)
Zurich International Festival All-Stars / From Europe with Jazz (4)
––––––––––––––––––––––––––––––––––––––––

DR Peak RMS Duration Track
––––––––––––––––––––––––––––––––––––––––
DR13 -0.67 dB -18.01 dB 18:53 04-Sigo's Garden
DR13 -8.66 dB -24.74 dB 9:28 01-Salamanderdans
DR12 -1.19 dB -16.82 dB 5:55 02-Next Please
DR13 -6.70 dB -24.65 dB 5:46 03-Lonely Woman
––––––––––––––––––––––––––––––––––––––––

Number of tracks: 4
Official DR value: DR13

Samplerate: 88200 Hz
Channels: 2
Bits per sample: 24
Bitrate: 2441 kbps
Codec: FLAC
================================================================================


Thanks to the Original customer!