Tags
Language
Tags

VA - Live At Knebworth: The Best British Rock Concert Of All Time (1990/2015) [BDRip FLAC 24 bit/48kHz]

Posted By: HDV
VA - Live At Knebworth: The Best British Rock Concert Of All Time (1990/2015) [BDRip FLAC 24 bit/48kHz]

VA - Live At Knebworth (The Best British Rock Concert Of All Time) (1990/2015)
FLAC (tracks) 24 bit/48 kHz | Time - 186:53 minutes | 1,37 GB
Blu-Ray Rip | Sourced Track - LPCM 2.0 Stereo (24/48) | Artwork: Covers

On the 30th June 1990 in the grounds of Knebworth House a concert was staged to raise funds for Nordoff-Robbins Music Therapy and the Brit School For Performing Arts. It has since been heralded as the "best British rock concert of all time". The breathtaking performing line-up was drawn entirely from acts who had been recipients of the prestigious Sliver Clef Award presented annually by Nordoff-Robbins Music Therapy for outstanding services to the British Music Industry.

Tracklist:

01 - Tears For Fears – Change
02 - Tears For Fears – Badman's Song
03 - Tears For Fears – Everybody Wants To Rule The World
04 - Cliff Richard & The Shadows – On The Beach
05 - Cliff Richard & The Shadows – Good Golly Miss Molly
06 - Cliff Richard & The Shadows – We Don't Talk Anymore
07 - Phil Collins & The Serious Band – In The Air Tonight
08 - Phil Collins & The Serious Band – Sussudio
09 - Paul McCartney – Coming Up
10 - Paul McCartney – Birthday
11 - Paul McCartney – Hey Jude
12 - Paul McCartney – Can't Buy Me Love
13 - Status Quo – Whatever You Want
14 - Status Quo – Rockin' All Over The World
15 - Status Quo – Dirty Water
16 - Status Quo – In The Army Now
17 - Eric Clapton – Before You Accuse Me
18 - Eric Clapton – Tearin' Us Apart
19 - Dire Straits – Solid Rock
20 - Dire Straits – Think I Love You Too Much
21 - Dire Straits – Money For Nothing
22 - Elton John – Sacrifice
23 - Elton John – Sad Songs (Say So Much)
24 - Robert Plant – Hurting Kind
25 - Robert Plant – Tall Cool One
26 - Robert Plant – Wearing & Tearing (with Jimmy Page)
27 - Robert Plant – Rock And Roll (with Jimmy Page)
28 - Genesis – Mama
29 - Genesis – Throwing It All Away
30 - Genesis – Turn It On Again Medley: Turn It On Again / Everybody Needs Somebody To Love / Reach Out, I'll Be There / Pinball Wizard / In The Midnight Hour / Turn It On Again (Reprise)
31 - Pink Floyd – Shine On You Crazy Diamond
32 - Pink Floyd – Run Like Hell

Analyzed: Cliff Richard & The Shadows / Live At Knebworth: The Best British Rock Concert Of All Time (1-3)
Dire Straits / Live At Knebworth: The Best British Rock Concert Of All Time (4-6)
Elton John / Live At Knebworth: The Best British Rock Concert Of All Time (7-8)
Eric Clapton / Live At Knebworth: The Best British Rock Concert Of All Time (9-10)
Genesis / Live At Knebworth: The Best British Rock Concert Of All Time (11-13)
Paul McCartney / Live At Knebworth: The Best British Rock Concert Of All Time (14-17)
Phil Collins & The Serious Band / Live At Knebworth: The Best British Rock Concert Of All Time (18-19)
Pink Floyd / Live At Knebworth: The Best British Rock Concert Of All Time (20-21)
Robert Plant / Live At Knebworth: The Best British Rock Concert Of All Time (22-25)
Status Quo / Live At Knebworth: The Best British Rock Concert Of All Time (26-29)
Tears For Fears / Live At Knebworth: The Best British Rock Concert Of All Time (30-32)
––––––––––––––––––––––––––––––––––––––––

DR Peak RMS Duration Track
––––––––––––––––––––––––––––––––––––––––
DR9 -1.42 dB -12.68 dB 2:36 04-On The Beach
DR9 -1.44 dB -12.50 dB 2:55 05-Good Golly Miss Molly
DR10 -1.38 dB -12.37 dB 4:44 06-We Don't Talk Anymore
DR8 -0.50 dB -10.40 dB 5:25 19-Solid Rock
DR9 -0.50 dB -10.97 dB 5:58 20-Think I Love You Too Much
DR9 -0.50 dB -10.98 dB 7:08 21-Money For Nothing
DR12 -0.53 dB -15.13 dB 4:58 22-Sacrifice
DR8 -0.50 dB -10.65 dB 5:34 23-Sad Songs (Say So Much)
DR9 -0.50 dB -10.42 dB 5:29 17-Before You Accuse Me
DR6 -0.50 dB -8.81 dB 7:18 18-Tearin' Us Apart
DR8 -1.39 dB -12.44 dB 7:11 28-Mama
DR8 -1.37 dB -11.70 dB 6:19 29-Throwing It All Away
DR9 -1.41 dB -12.44 dB 10:28 30-Turn It On Again Medley: Turn It On Again / Everybody Needs Somebody To Love / Reach Out, I'll Be There / Pinball Wizard / In The Midnight Hour / Turn It On Again (Reprise)
DR11 -1.29 dB -13.93 dB 5:29 09-Coming Up
DR10 -1.43 dB -12.60 dB 2:39 10-Birthday
DR8 -0.37 dB -12.14 dB 7:53 11-Hey Jude
DR9 -1.36 dB -12.38 dB 2:57 12-Can't Buy Me Love
DR8 -1.18 dB -12.91 dB 6:46 07-In The Air Tonight
DR9 -1.36 dB -12.10 dB 7:12 08-Sussudio
DR12 -1.42 dB -16.60 dB 10:37 31-Shine On You Crazy Diamond
DR9 -1.36 dB -12.84 dB 8:30 32-Run Like Hell
DR9 -1.35 dB -11.73 dB 4:38 24-Hurting Kind
DR8 -1.29 dB -11.00 dB 5:20 25-Tall Cool One
DR8 -1.37 dB -11.09 dB 5:37 26-Wearing & Tearing (with Jimmy Page)
DR7 -1.31 dB -9.61 dB 4:15 27-Rock And Roll (with Jimmy Page)
DR8 -0.50 dB -10.00 dB 4:26 13-Whatever You Want
DR7 -0.50 dB -9.05 dB 4:00 14-Rockin' All Over The World
DR9 -0.50 dB -11.37 dB 4:08 15-Dirty Water
DR7 -0.50 dB -9.54 dB 4:14 16-In The Army Now
DR7 -1.30 dB -10.10 dB 6:40 01-Change
DR8 -1.37 dB -12.21 dB 11:12 02-Badman's Song
DR9 -1.20 dB -12.11 dB 4:17 03-Everybody Wants To Rule The World
––––––––––––––––––––––––––––––––––––––––

Number of tracks: 32
Official DR value: DR9

Samplerate: 48000 Hz
Channels: 2
Bits per sample: 24
Bitrate: 1104 kbps
Codec: FLAC
================================================================================


All files were fully tagged.