VA - Iconic Performances From The Monterey International Pop Festival (2017) [Official Digital Download]

Posted By: HDV
VA - Iconic Performances From The Monterey International Pop Festival (2017) [Official Digital Download]

VA - Iconic Performances From The Monterey International Pop Festival (2017)
FLAC (tracks) 24-bit/44,1 kHz | Time - 57:48 minutes | 676 MB
Studio Master, Official Digital Download | Artwork: Front cover

This compilation, in celebration of the 50th anniversary of the Monterey International Pop Festival, contains previously unreleased recordings from The Grateful Dead and Laura Nyro, as well as iconic performances from the likes of Jimi Hendrix, Otis Redding, The Who and Jefferson Airplane. As the key event leading up to the Summer of Love in 1967, the Monterey International Pop Festival jumpstarted the musical culture of the 60s and 70s and continues to shape the global concert industry of today.

Tracklist:

01. Buffalo Springfield - For What It's Worth
02. Paul Butterfield Blues Band - Driftin' Blues
03. Grateful Dead - Cold Rain and Snow
04. Simon & Garfunkel - The Sounds of Silence
05. Laura Nyro - Poverty Train
06. The Electric Flag - Wine
07. Jefferson Airplane - White Rabbit
08. Janis Joplin - Ball and Chain
09. The Who - My Generation
10. Hugh Masakela - Bajabula Bonke (The Healing Song)
11. Otis Redding - I've Been Loving You Too Long (To Stop Now)
12. Jimi Hendrix - Like a Rolling Stone
13. The Mamas & The Papas - California Dreamin'

Recorded live on June 16-18, 1967 at Monterey Pop Festival at the Monterey County Fairgrounds in Monterey, CA.

Analyzed: Buffalo Springfield / Iconic Performances from the Monterey International Pop Festival (1)
Grateful Dead / Iconic Performances from the Monterey International Pop Festival (2)
Hugh Masakela / Iconic Performances from the Monterey International Pop Festival (3)
Janis Joplin / Iconic Performances from the Monterey International Pop Festival (4)
Jefferson Airplane / Iconic Performances from the Monterey International Pop Festival (5)
Jimi Hendrix / Iconic Performances from the Monterey International Pop Festival (6)
Laura Nyro / Iconic Performances from the Monterey International Pop Festival (7)
Otis Redding / Iconic Performances from the Monterey International Pop Festival (8)
Paul Butterfield Blues Band / Iconic Performances from the Monterey International Pop Festival (9)
Simon & Garfunkel / Iconic Performances from the Monterey International Pop Festival (10)
The Electric Flag / Iconic Performances from the Monterey International Pop Festival (11)
The Mamas & The Papas / Iconic Performances from the Monterey International Pop Festival (12)
The Who / Iconic Performances from the Monterey International Pop Festival (13)
––––––––––––––––––––––––––––––––––––––––

DR Peak RMS Duration Track
––––––––––––––––––––––––––––––––––––––––
DR10 -0.39 dB -13.21 dB 2:50 01-For What It's Worth
DR9 -0.39 dB -11.30 dB 3:26 03-Cold Rain and Snow
DR11 -0.69 dB -13.30 dB 3:45 10-Bajabula Bonke (The Healing Song)
DR11 -0.39 dB -14.05 dB 8:11 08-Ball and Chain
DR8 -0.39 dB -11.57 dB 2:28 07-White Rabbit
DR9 -0.39 dB -11.04 dB 6:48 12-Like a Rolling Stone
DR12 -1.37 dB -17.20 dB 4:24 05-Poverty Train
DR11 -0.39 dB -14.63 dB 4:08 11-I've Been Loving You Too Long (To Stop Now)
DR10 -0.39 dB -13.83 dB 8:09 02-Driftin' Blues
DR12 -0.39 dB -17.72 dB 3:30 04-The Sounds of Silence
DR10 -0.39 dB -12.56 dB 2:40 06-Wine
DR9 -0.39 dB -12.74 dB 3:59 13-California Dreamin'
DR10 -0.39 dB -12.52 dB 3:31 09-My Generation
––––––––––––––––––––––––––––––––––––––––

Number of tracks: 13
Official DR value: DR10

Samplerate: 44100 Hz
Channels: 2
Bits per sample: 24
Bitrate: 1575 kbps
Codec: FLAC
================================================================================


Thanks to the Original customer!