Various Artists - The Super Audio Collection Volume 5 (2011) [Linn 24-96]

Posted By: HDV
Various Artists - The Super Audio Collection Volume 5 (2011) [Linn 24-96]

Various Artists - The Super Audio Collection Volume 5 (2011)
FLAC (tracks) 24 bit/96 kHz | Time - 63:56 minutes | 1,23 GB
Official Digital Download - Source: LinnRecords.com | Covers & Digital Booklet

Linn Records' fifth volume in its popular sampler series features an opulent selection of tracks from its catalogue of award-winning artists. ‘The Super Audio Collection Volume 5' is a stunning new collection of Hi-Fi demonstration quality tracks chosen from the bestselling albums of 2010-11.

Tracklist:

01. Sara - Barb Jungr
02. Three Minuets, Op. 11 - No. 7 in A minor: Andante - William Carter
03. Moon Blue - Carol Kidd
04. When the sunny sky has gone - Fiona Mackenzie
05. With Every Breath I Take - Claire Martin
06. Flute Sonata Op. 164: II. Cantilena: Assez lent - Katherine Bryan
07. Early in the morning - The Prince Consort
08. Iberia Book 1 - 2. El Puerto - Artur Pizarro
09. Sonata No. 1 in G minor - Adagio - Pavlo Beznosiuk
10. Mass in B Minor, Kyrie eleison; Dunedin Consort
11. Fantasia No. 2 a5 la Rondinella (VdGS 2) - Phantasm
12. Missa Domine Dominus noster - Agnus Dei - Magnificat
13. Winterreise, Op. 89, D. 911 - Der Lindenbaum - Peter Harvey
14. Artaxerxes, No. 28, Air: The soldier, tir'd of war's alarms - Classical Opera Company
15. Opus 6 No. 2 in F Major (HWV. 320) - I. Andante larghetto - Avison Ensemble
16. Ascension Oratorio, BWV. 11 - Chorus Loben Gott in seinen Reichen - Retrospect Ensemble

Analyzed: Various Artists / The Super Audio Collection Volume 5 Sampler
––––––––––––––––––––––––––––––––––––––––

DR Peak RMS Duration Track
––––––––––––––––––––––––––––––––––––––––
DR13 -3.59 dB -22.30 dB 5:05 01-Sara
DR12 -2.40 dB -19.39 dB 2:07 02-Three Minuets, Op. 11- No. 7 in A minor: Andante
DR13 -3.13 dB -19.30 dB 3:30 03-Moon Blue
DR10 -7.12 dB -18.97 dB 2:34 04-When the sunny sky has gone
DR12 -0.41 dB -17.87 dB 2:50 05-With Every Breath I Take
DR12 -0.48 dB -18.03 dB 4:10 06-Flute Sonata Op. 164: II. Cantilena: Assez lent
DR13 -1.05 dB -19.01 dB 1:52 07-Early in the morning
DR12 -0.32 dB -17.65 dB 4:11 08-Iberia Book 1 – 2. El Puerto
DR12 -2.88 dB -20.45 dB 4:06 09-Sonata No. 1 in G minor – Adagio
DR12 -0.31 dB -16.59 dB 9:40 10-Mass in B Minor - Kyrie eleison
DR12 -2.85 dB -19.78 dB 3:50 11-Fantasia No. 2 a5 la Rondinella (VdGS 2)
DR11 -0.34 dB -14.98 dB 2:33 12-Missa Domine Dominus noster – Agnus Dei
DR15 -1.95 dB -22.89 dB 5:06 13-Winterreise, Op. 89, D. 911 – Der Lindenbaum
DR13 -0.37 dB -17.92 dB 3:36 14-Artaxerxes, No. 28, Air: The soldier, tir’d of war’s alarms
DR14 -3.03 dB -20.98 dB 4:13 15-Opus 6 No. 2 in F Major (HWV. 320) – I. Andante larghetto
DR12 -0.28 dB -15.64 dB 4:32 16-Ascension Oratorio, BWV. 11 – Chorus Loben Gott in seinen Reichen
––––––––––––––––––––––––––––––––––––––––

Number of tracks: 16
Official DR value: DR12

Samplerate: 96000 Hz
Channels: 2
Bits per sample: 24
Bitrate: 2921 kbps
Codec: FLAC
================================================================================


Thanks to the Original customer!