Subcategories

VA - The Music Of David Lynch: Benefiting The David Lynch Foundation (2016) [Official Digital Download]

Posted By: HDV
VA - The Music Of David Lynch: Benefiting The David Lynch Foundation (2016) [Official Digital Download]

VA - The Music Of David Lynch: Benefiting The David Lynch Foundation (2016)
FLAC (tracks) 24-bit/48 kHz | Time - 68:30 minutes | 851 MB
Studio Master, Official Digital Download | Artwork: Front cover

Songs from classic David Lynch films & Twin Peaks live in concert with Angelo Badalamenti, featured a variety of artists performing music from David Lynch's catalog and film/TV soundtracks, including Duran Duran, Moby, Zola Jesus, and more.

The Twin Peaks soundtrack is prominently featured with maestro Angelo Badalamenti —joined by original Twin Peaks synthesizer player, Kinny Landrum— performing three of the show’s most renowned instrumentals; Laura Palmer’s Theme, Dance of the Dream Man and Twin Peaks Theme. There’s also Moby‘s bongo-infused and career-launching techno take on Laura Palmer’s Theme, Go, as well as Jim James‘ impassioned interpretation of Sycamore Trees, which its original composer afterwards praised as “a deeply moving performance!”

Arguably Mulholland Drive’s most memorable moment now captured live on this record, Rebekah Del Rio‘s a cappella version of Llorando sounds just as breathtaking and heartbreaking as when she performed it for an equally silenced audience in Club Silencio. Sky Ferreira adds composed intensity to Blue Velvet’s title song, while Tennis and Twin Peaks (the band) cover Roy Orbison’s In Dreams, which of course will forever be associated with Dean Stockwell’s scene-stealing mime.

From Wild at Heart, there’s Donovan‘s gracious version of Love Me Tender and an audacious take on Chris Isaak’s Wicked Game courtesy of Lykke Li. Zola Jesus adds vocal power to Eraserhead’s In Heaven, and hands down the album’s most experimental track is Wayne Coyne and Steven Drozd‘s 10-minute soundscape inspired by Eraserhead and The Elephant Man and fused with the noise machines of Rebecca Baxter. David Lynch’s recent nonfilmic musical collaborations are represented by Chrysta Bell‘s sensual Swing With Me and Karen O‘s energetic Pinky’s Dream.

From the 15 songs on the double album, Duran Duran‘s The Chauffeur is the only track that has little to do with David Lynch —it wasn’t even part of the Duran Duran: Unstaged show he directed in 2011— but its sinister melody and lyrics certainly don’t feel out of place on this release. The album’s closing track is David Lynch himself reciting a poem of unknown origin accompanied by Donovan on guitar.

Tracklist:

01. Angelo Badalamenti - Laura Palmer's Theme
02. Donovan - Love Me Tender
03. Chrysta Bell - Swing with Me
04. Tennis and Twin Peaks - In Dreams
05. Rebekah Del Rio - Llorando
06. Sky Ferreira - Blue Velvet
07. Jim James - Sycamore Trees
08. Karen O - Pinky's Dream
09. Angelo Badalamenti - Dance of the Dream Man
10. Moby - Go
11. Duran Duran - The Cheauffer
12. Lykke Li - Wicked Game
13. Zola Jesus - In Heaven
14. Wayne Coyne and Steven Drozd - Soundscape from Eraserhead and the Elephant Man
15. Angelo Badalamenti - Twin Peaks Theme
16. David Lynch - Poem of Unknown Origin

Analyzed: Angelo Badalamenti / The Music of David Lynch (1-3)
Chrysta Bell / The Music of David Lynch (4)
David Lynch / The Music of David Lynch (5)
Donovan / The Music of David Lynch (6)
Duran Duran / The Music of David Lynch (7)
Jim James / The Music of David Lynch (8)
Karen O / The Music of David Lynch (9)
Lykke Li / The Music of David Lynch (10)
Moby / The Music of David Lynch (11)
Rebekah Del Rio / The Music of David Lynch (12)
Sky Ferreira / The Music of David Lynch (13)
Tennis and Twin Peaks / The Music of David Lynch (14)
Wayne Coyne and Steven Drozd / The Music of David Lynch (15)
Zola Jesus / The Music of David Lynch (16)
––––––––––––––––––––––––––––––––––––––––

DR Peak RMS Duration Track
––––––––––––––––––––––––––––––––––––––––
DR7 -0.05 dB -10.04 dB 4:39 01-Laura Palmer's Theme
DR7 0.00 dB -8.83 dB 5:03 09-Dance of the Dream Man
DR6 -0.04 dB -7.50 dB 4:55 15-Twin Peaks Theme
DR6 0.00 dB -8.85 dB 5:27 03-Swing with Me
DR13 -0.30 dB -19.20 dB 1:15 16-Poem of Unknown Origin
DR7 0.00 dB -10.65 dB 3:38 02-Love Me Tender
DR7 -0.30 dB -9.74 dB 7:25 11-The Cheauffer
DR6 -0.11 dB -9.43 dB 4:00 07-Sycamore Trees
DR5 0.00 dB -6.31 dB 4:06 08-Pinky's Dream
DR7 -0.30 dB -9.25 dB 3:36 12-Wicked Game
DR6 0.00 dB -7.15 dB 5:50 10-Go
DR8 -0.17 dB -12.77 dB 4:04 05-Llorando
DR6 -0.23 dB -8.47 dB 3:03 06-Blue Velvet
DR7 -0.30 dB -9.16 dB 2:55 04-In Dreams
DR6 -0.05 dB -9.23 dB 6:54 14-Soundscape from Eraserhead and the Elephant Man
DR9 -0.05 dB -11.02 dB 1:40 13-In Heaven
––––––––––––––––––––––––––––––––––––––––

Number of tracks: 16
Official DR value: DR7

Samplerate: 48000 Hz
Channels: 2
Bits per sample: 24
Bitrate: 1537 kbps
Codec: FLAC
================================================================================


Thanks to the Original customer!