Tags
Language
Tags
April 2024
Su Mo Tu We Th Fr Sa
31 1 2 3 4 5 6
7 8 9 10 11 12 13
14 15 16 17 18 19 20
21 22 23 24 25 26 27
28 29 30 1 2 3 4

VA - A Very Nashville Christmas (2017) [Official Digital Download]

Posted By: HDV
VA - A Very Nashville Christmas (2017) [Official Digital Download]

V.A. - A Very Nashville Christmas (2017)
FLAC (tracks) 24-bit/44,1 kHz | Time - 37:26 minutes | 435 MB
Studio Master, Official Digital Download | Artwork: Front cover

"A Very Nashville Christmas" is a collection of ten original, country-infused festive songs from artists such as David Adam Byrnes, The Young Fables, and Liv Waters that range from the upbeat to the bittersweet.

Tracklist:

01. David Adam Byrnes - All Year For
02. Crystal Yates - New Tradition for Christmas
03. Ali Morgan - You and Me and the Christmas Tree
04. Brandon Chase - Marry Me for Christmas
05. Tyler Jordan - Christmas Missing You
06. The Young Fables - OMG It's December
07. Dave Kennedy - Christmas All the Time
08. Tony Winkler - That Time of Year
09. Daughter Jack - Don't Save It All
10. Liv Waters - Ain't Nothing Merry

Analyzed: Ali Morgan / A Very Nashville Christmas (1)
Brandon Chase / A Very Nashville Christmas (2)
Crystal Yates / A Very Nashville Christmas (3)
Daughter Jack / A Very Nashville Christmas (4)
Dave Kennedy / A Very Nashville Christmas (5)
David Adam Byrnes / A Very Nashville Christmas (6)
Liv Waters / A Very Nashville Christmas (7)
The Young Fables / A Very Nashville Christmas (8)
Tony Winkler / A Very Nashville Christmas (9)
Tyler Jordan / A Very Nashville Christmas (10)
––––––––––––––––––––––––––––––––––––––––

DR Peak RMS Duration Track
––––––––––––––––––––––––––––––––––––––––
DR4 -1.01 dB -6.83 dB 3:07 03-You and Me and the Christmas Tree
DR6 -1.03 dB -9.04 dB 4:07 04-Marry Me for Christmas
DR5 -1.02 dB -8.07 dB 3:06 02-New Tradition for Christmas
DR5 -1.03 dB -9.39 dB 4:30 09-Don't Save It All
DR4 -1.02 dB -6.06 dB 3:25 07-Christmas All the Time
DR5 -1.03 dB -8.68 dB 3:40 01-All Year For
DR5 -1.03 dB -8.56 dB 4:07 10-Ain't Nothing Merry
DR5 -1.03 dB -7.42 dB 3:06 06-OMG It's December
DR5 -1.03 dB -6.83 dB 3:49 08-That Time of Year
DR5 -1.03 dB -8.99 dB 4:29 05-Christmas Missing You
––––––––––––––––––––––––––––––––––––––––

Number of tracks: 10
Official DR value: DR5

Samplerate: 44100 Hz
Channels: 2
Bits per sample: 24
Bitrate: 1502 kbps
Codec: FLAC
================================================================================


Thanks to the Original customer!