VA - Dark Nights: Death Metal Soundtrack (2021) [Official Digital Download 24/48]

Posted By: delpotro
VA - Dark Nights: Death Metal Soundtrack (2021) [Official Digital Download 24/48]

VA - Dark Nights: Death Metal Soundtrack (2021)
FLAC (tracks) 24-bit/48 kHz | Front Cover | Time - 60:14 minutes | 768 MB
Alternative Rock | Label: Loma Vista Recordings, Official Digital Download

To accompany the unrestrained awesomeness of DC’s Dark Nights: Death Metal comic series, executive producer/composer Tyler Bates (Guardians of the Galaxy, John Wick) presents theDark Nights: Death Metal soundtrack. Directly inspired by the comic series’ storyline, the diverse soundtrack illuminates the darkest corners of each DC character’s psyche.

Tracklist:
1. Mastodon – Forged By Neron (03:05)
2. chelsea wolfe – Diana (04:16)
3. Health – ANTI-LIFE (04:29)
4. Maria Brink – Meet Me In The Fire (04:54)
5. Grey Daze – Anything, Anything (03:12)
6. Rise Against – Broken Dreams, Inc. (Dark Nights: Death Metal) (03:52)
7. Manchester Orchestra – Never Ending (05:06)
8. Denzel Curry – Bad Luck (02:52)
9. Carach Angren – Skull With A Forked Tongue (05:54)
10. Starcrawler – Goodtime Girl (04:10)
11. Gunship – Berserker (05:34)
12. Greg Puciato – Now You’ve Really Done It (03:11)
13. Show Me the Body – Stone Cold Earth (02:23)
14. IDLES – Sodium (03:51)
15. Soccer Mommy – Kissing In The Rain (03:15)

foobar2000 1.4.1 / Dynamic Range Meter 1.1.1
log date: 2021-06-18 11:55:03

––––––––––––––––––––––––––––––––––––––––
Analyzed: Carach Angren / Dark Nights: Death Metal Soundtrack (1)
Chelsea Wolfe / Dark Nights: Death Metal Soundtrack (2)
Denzel Curry / Dark Nights: Death Metal Soundtrack (3)
Greg Puciato / Dark Nights: Death Metal Soundtrack (4)
Grey Daze / Dark Nights: Death Metal Soundtrack (5)
GUNSHIP / Dark Nights: Death Metal Soundtrack (6)
Health / Dark Nights: Death Metal Soundtrack (7)
IDLES / Dark Nights: Death Metal Soundtrack (8)
Manchester Orchestra / Dark Nights: Death Metal Soundtrack (9)
Maria Brink / Dark Nights: Death Metal Soundtrack (10)
Mastodon / Dark Nights: Death Metal Soundtrack (11)
Rise Against / Dark Nights: Death Metal Soundtrack (12)
Show Me the Body / Dark Nights: Death Metal Soundtrack (13)
Soccer Mommy / Dark Nights: Death Metal Soundtrack (14)
Starcrawler / Dark Nights: Death Metal Soundtrack (15)
––––––––––––––––––––––––––––––––––––––––

DR Peak RMS Duration Track
––––––––––––––––––––––––––––––––––––––––
DR4 -0.43 dB -5.60 dB 5:55 09-Skull With A Forked Tongue
DR5 -0.50 dB -8.08 dB 4:16 02-Diana
DR5 -0.20 dB -6.55 dB 2:53 08-Bad Luck
DR4 -1.88 dB -6.80 dB 3:12 12-Now You’ve Really Done It
DR4 -0.47 dB -5.54 dB 3:13 05-Anything, Anything
DR5 -0.27 dB -7.70 dB 5:35 11-Berserker
DR5 -0.51 dB -7.00 dB 4:30 03-ANTI-LIFE
DR3 -0.50 dB -6.28 dB 3:52 14-Sodium
DR5 -0.49 dB -9.09 dB 5:06 07-Never Ending
DR4 -0.64 dB -7.18 dB 4:55 04-Meet Me In The Fire
DR6 -0.20 dB -6.66 dB 3:05 01-Forged By Neron
DR6 -0.47 dB -7.76 dB 3:53 06-Broken Dreams, Inc. (Dark Nights: Death Metal)
DR4 -0.45 dB -6.04 dB 2:23 13-Stone Cold Earth
DR5 -0.50 dB -7.38 dB 3:16 15-Kissing In The Rain
DR5 -0.60 dB -6.68 dB 4:11 10-Goodtime Girl
––––––––––––––––––––––––––––––––––––––––

Number of tracks: 15
Official DR value: DR5

Samplerate: 48000 Hz
Channels: 2
Bits per sample: 24
Bitrate: 1801 kbps
Codec: FLAC
================================================================================


Thanks to the Original customer!