VA - 4 Great Operas (2013) [Esoteric Japan] (9x SACD Box Set) PS3 ISO + Hi-Res FLAC

Posted By: HDAtall
VA - 4 Great Operas (2013) [Esoteric Japan] (9x SACD Box Set) PS3 ISO + Hi-Res FLAC

VA - 4 Great Operas on Deutsche Grammophon & Decca (2013) [Esoteric Japan] (9x SACD Box Set)
PS3 Rip | 9x SACD ISO | DSD64 2.0 > 1-bit/2.8224 MHz | 521:23 minutes | Scans included | 14,23 GB
or FLAC (converted with foobar2000 to tracks) 24bit/96 kHz | Box Art & Scans included | 11,25 GB

The reissue of historical music masterpieces by ESOTERIC has attracted a lot of attention, both for its uncompromising commitment to recreating the original master sound, and for using SACD technology to improve sound quality. This Box Set of "4 Great Operas on Deutsche Grammophon & Decca" features the four works of this time are historical name boards which were produced in the heyday of analog from 1968 to 1977, and at the time of recording, each record company gathered the best conductor, orchestra, singer, the best sound, It was recorded with an in-depth session organized at the proud recording venue.


VA - 4 Great Operas (2013) [Esoteric Japan] (9x SACD Box Set) PS3 ISO + Hi-Res FLAC

Discs 1/2/3: Orchester Der Deutschen Oper Berlin, Karl Böhm - Mozart: Le Nozze Di Figaro (1968/2013)
PS3 Rip | SACD ISO | DSD64 2.0 > 1-bit/2.8224 MHz | 173:02 minutes | Scans | 4,64 GB
or FLAC (converted with foobar2000 to tracks) 24bit/96 kHz | Scans included | 3,77 GB
Esoteric Japan # ESSG/D-90089~91

As with many conductors of his generation, Karl Böhm had a now-unfashionable liking for a rallentando at the end of an aria, but that pales into insignificance alongside the many virtues of his conducting. The cast is splendid.

Tracklist:

Disc 1 #01. Ouverture
Disc 1 #02. Cinque… dieci… venti… trenta [Act 1]
Disc 1 #03. Cosa stai misurando [Act 1]
Disc 1 #04. Se a caso Madama la notte ti chiama [Act 1]
Disc 1 #05. Or bene, ascolta, e taci [Act 1]
Disc 1 #06. Bravo, Signor padrone [Act 1]
Disc 1 #07. Se vuol ballare, Signor Contino [Act 1]
Disc 1 #08. Ed aspettaste il giorno [Act 1]
Disc 1 #09. La vendetta, oh, la vendetta [Act 1]
Disc 1 #10. Tutto ancor non ho perso [Act 1]
Disc 1 #11. Via, resti servita [Act 1]
Disc 1 #12. Va là, vecchia pedante [Act 1]
Disc 1 #13. Non so più cosa son, cosa faccio [Act 1]
Disc 1 #14. Ah, son perduto! [Act 1]
Disc 1 #15. Cosa sento! tosto andate [Act 1]
Disc 1 #16. Basilio, in traccia tosto di Figaro [Act 1]
Disc 1 #17. Giovani liete, fiori spargete [Act 1]
Disc 1 #18. Cos'è questa commedia? [Act 1]
Disc 1 #19. Giovani liete, fiori spargete [Act 1]
Disc 1 #20. Evviva! - E voi non applaudite? [Act 1]
Disc 1 #21. Non più andrai, farfallone amoroso [Act 1]
Disc 1 #22. Porgi, amor, qualche ristoro [Act 2]
Disc 1 #23. Vieni, cara Susanna [Act 2]
Disc 1 #24. Quanto duolmi, Susanna [Act 2]
Disc 1 #25. Voi che sapete che cosa è amor [Act 2]
Disc 1 #26. Bravo! che bella voce! [Act 2]
Disc 1 #27. Venite… Inginocchiatevi [Act 2]

Disc 2 #01. Quante buffonerie! [Act 2]
Disc 2 #02. Che novità! non fu mai vostra usanza [Act 2]
Disc 2 #03. Susanna, or via, sortite [Act 2]
Disc 2 #04. Dunque, voi non aprite? [Act 2]
Disc 2 #05. Aprite, presto, aprite [Act 2]
Disc 2 #06. O guarda il demonietto! [Act 2]
Disc 2 #07. Tutto è come il lasciai [Act 2]
Disc 2 #08. Esci, omai, garzon malnato [Act 2]
Disc 2 #09. Signore! Cos'è quel stupore? [Act 2]
Disc 2 #10. Susanna, son morta [Act 2]
Disc 2 #11. Signori, di fuori son già i suonatori [Act 2]
Disc 2 #12. Conoscete, signor Figaro [Act 2]
Disc 2 #13. Ah! signore… signor! - Cosa è stato? [Act 2]
Disc 2 #14. Vostre dunque saran queste carte [Act 2]
Disc 2 #15. Voi signor, che giusto siete [Act 2]
Disc 2 #16. Che imbarazzo è mai questo! [Act 3]
Disc 2 #17. Crudel! perché finora farmi languir così [Act 3]
Disc 2 #18. E perché fosti meco stamattina sì austera? [Act 3]
Disc 2 #19. Hai già vinta la causa! [Act 3]
Disc 2 #20. Vedrò mentr'io sospiro [Act 3]
Disc 2 #21. È decisa la lite [Act 3]
Disc 2 #22. Riconosci in questo amplesso [Act 3]
Disc 2 #23. Eccovi, o caro amico [Act 3]
Disc 2 #24. Andiamo, andiam, bel paggio [Act 3]
Disc 2 #25. E Susanna non vien! [Act 3]
Disc 2 #26. Dove sono i bei momenti [Act 3]
Disc 2 #27. Io vi dico, signor [Act 3]
Disc 2 #28. Sull'aria… - Che soave zeffiretto [Act 3]
Disc 2 #29. Piegato è il foglio [Act 3]
Disc 2 #30. Ricevete, o padroncina [Act 3]
Disc 2 #31. Queste sono, Madama, le ragazze del loco [Act 3]
Disc 2 #32. Ecco la marcia… andiamo [Act 3]
Disc 2 #33. Allegretto - Amanti costanti [Act 3]
Disc 2 #34. Andante - Eh già, solita usanza [Act 3]
Disc 2 #35. Andate, amici [Act 3]

Disc 3 #01. L'ho perduta… me meschina! [Act 4]
Disc 3 #02. Barbarina, cos'hai? [Act 4]
Disc 3 #03. Il capro e la capretta [Act 4]
Disc 3 #04. Nel padiglione a manca [Act 4]
Disc 3 #05. In quegli anni in cui val poco [Act 4]
Disc 3 #06. Tutto è disposto [Act 4]
Disc 3 #07. Aprite un po' quegli occhi [Act 4]
Disc 3 #08. Signora, ella mi disse [Act 4]
Disc 3 #09. Giunse alfin il momento [Act 4]
Disc 3 #10. Deh vieni, non tardar, o gioia bella [Act 4]
Disc 3 #11. Perfida! e in quella forma meco mentia? [Act 4]
Disc 3 #12. Pian pianin le andrò più presso [Act 4]
Disc 3 #13. Ecco qui la mia Susanna [Act 4]
Disc 3 #14. Tutto è tranquillo e placido [Act 4]
Disc 3 #15. Pace, pace, mio dolce tesoro [Act 4]
Disc 3 #16. Gente, gente, all'armi, all'armi [Act 4]

Opera in four acts (Libretto: Lorenzo da Ponte)

Orchester der Deutschen Oper Berlin, Chor der Deutschen Oper Berlin
Karl Böhm - Conductor
Walter Hagen-Groll - Chorus Master

Dietrich Fischer-Dieskau (baritone) as Conte Almaviva
Gundula Janowitz (soprano) as Contessa Almaviva
Hermann Prey (baritone) as Figaro
Peter Lagger (bass) as Bartolo
Tatiana Troyanos (mezzo-soprano) as Cherubino
Edith Mathis (soprano) as Susanna
Patricia Johnson (mezzo-soprano) as Marcellina
Erwin Wohlfahrt (tenor) as Basilio
Martin Vantin (tenor) as Don Curzio
Klaus Hirte (bass) as Antonio
Barbara Vogel (soprano) as Barbarino
Margarethe Giehse (vocalist)
Christa Doll (vocalist)


Produced by Wolfgang Lohse. Engineered by Günter Hermanns.
Recorded on March 12, 1968 at Jesus-Christus-Kirche, Berlin.

foobar2000 1.4.6 / Dynamic Range Meter 1.1.1

––––––––––––––––––––––––––––––––––––––––
Analyzed: Karl Böhm, Orchester der Deutschen Oper Berlin / Mozart: Le Nozze di Figaro (Disc 1)
––––––––––––––––––––––––––––––––––––––––

DR Peak RMS Duration Track
––––––––––––––––––––––––––––––––––––––––
DR13 -6.23 dB -23.81 dB 4:18 01-Ouverture
DR13 -7.44 dB -25.92 dB 2:46 02-Cinque… dieci… venti… trenta [Act 1]
DR14 -11.48 dB -31.14 dB 0:40 03-Cosa stai misurando [Act 1]
DR14 -7.87 dB -26.33 dB 2:36 04-Se a caso Madama la notte ti chiama [Act 1]
DR16 -11.98 dB -31.40 dB 1:32 05-Or bene, ascolta, e taci [Act 1]
DR14 -10.30 dB -30.67 dB 0:51 06-Bravo, Signor padrone [Act 1]
DR14 -8.64 dB -26.63 dB 2:34 07-Se vuol ballare, Signor Contino [Act 1]
DR14 -10.76 dB -28.73 dB 1:03 08-Ed aspettaste il giorno [Act 1]
DR14 -5.88 dB -24.55 dB 3:08 09-La vendetta, oh, la vendetta [Act 1]
DR13 -10.61 dB -29.25 dB 0:47 10-Tutto ancor non ho perso [Act 1]
DR12 -8.21 dB -24.39 dB 2:21 11-Via, resti servita [Act 1]
DR13 -14.03 dB -30.13 dB 1:43 12-Va là, vecchia pedante [Act 1]
DR13 -8.49 dB -26.28 dB 3:13 13-Non so più cosa son, cosa faccio [Act 1]
DR17 -8.33 dB -30.43 dB 3:07 14-Ah, son perduto! [Act 1]
DR14 -5.45 dB -24.51 dB 4:29 15-Cosa sento! tosto andate [Act 1]
DR14 -10.73 dB -29.05 dB 0:52 16-Basilio, in traccia tosto di Figaro [Act 1]
DR12 -7.54 dB -23.40 dB 1:15 17-Giovani liete, fiori spargete [Act 1]
DR15 -6.53 dB -28.96 dB 1:18 18-Cos'è questa commedia? [Act 1]
DR12 -6.92 dB -22.94 dB 0:59 19-Giovani liete, fiori spargete [Act 1]
DR16 -10.82 dB -29.55 dB 1:05 20-Evviva! - E voi non applaudite? [Act 1]
DR14 -6.57 dB -25.56 dB 3:45 21-Non più andrai, farfallone amoroso [Act 1]
DR13 -9.95 dB -27.89 dB 4:16 22-Porgi, amor, qualche ristoro [Act 2]
DR16 -11.03 dB -30.23 dB 3:19 23-Vieni, cara Susanna [Act 2]
DR14 -10.38 dB -29.43 dB 1:14 24-Quanto duolmi, Susanna [Act 2]
DR12 -12.98 dB -28.86 dB 3:04 25-Voi che sapete che cosa è amor [Act 2]
DR14 -14.63 dB -31.04 dB 1:02 26-Bravo! che bella voce! [Act 2]
DR15 -9.26 dB -28.03 dB 3:18 27-Venite… Inginocchiatevi [Act 2]
––––––––––––––––––––––––––––––––––––––––

Number of tracks: 27
Official DR value: DR14

Samplerate: 2822400 Hz / PCM Samplerate: 176400 Hz
Channels: 2
Bits per sample: 1
Bitrate: 5645 kbps
Codec: DSD64
================================================================================

––––––––––––––––––––––––––––––––––––––––
Analyzed: Karl Böhm, Orchester der Deutschen Oper Berlin / Mozart: Le Nozze di Figaro (Disc 2)
––––––––––––––––––––––––––––––––––––––––

DR Peak RMS Duration Track
––––––––––––––––––––––––––––––––––––––––
DR14 -9.64 dB -28.83 dB 2:13 01-Quante buffonerie! [Act 2]
DR14 -6.44 dB -28.42 dB 1:17 02-Che novità! non fu mai vostra usanza [Act 2]
DR13 -6.31 dB -22.79 dB 3:15 03-Susanna, or via, sortite [Act 2]
DR15 -7.61 dB -28.47 dB 0:53 04-Dunque, voi non aprite? [Act 2]
DR14 -10.49 dB -30.02 dB 1:00 05-Aprite, presto, aprite [Act 2]
DR8 -10.18 dB -29.60 dB 0:20 06-O guarda il demonietto! [Act 2]
DR14 -9.46 dB -27.12 dB 1:11 07-Tutto è come il lasciai [Act 2]
DR13 -5.75 dB -22.99 dB 2:44 08-Esci, omai, garzon malnato [Act 2]
DR13 -9.10 dB -25.91 dB 1:29 09-Signore! Cos'è quel stupore? [Act 2]
DR13 -5.70 dB -24.14 dB 3:42 10-Susanna, son morta [Act 2]
DR14 -7.79 dB -26.07 dB 1:01 11-Signori, di fuori son già i suonatori [Act 2]
DR12 -6.92 dB -24.93 dB 2:24 12-Conoscete, signor Figaro [Act 2]
DR14 -6.18 dB -24.54 dB 2:43 13-Ah! signore… signor! - Cosa è stato? [Act 2]
DR14 -5.55 dB -25.72 dB 3:04 14-Vostre dunque saran queste carte [Act 2]
DR13 -5.13 dB -22.12 dB 3:52 15-Voi signor, che giusto siete [Act 2]
DR15 -10.01 dB -29.25 dB 2:27 16-Che imbarazzo è mai questo! [Act 3]
DR12 -7.70 dB -24.85 dB 2:49 17-Crudel! perché finora farmi languir così [Act 3]
DR14 -12.25 dB -30.63 dB 0:41 18-E perché fosti meco stamattina sì austera? [Act 3]
DR14 -7.62 dB -25.42 dB 1:27 19-Hai già vinta la causa! [Act 3]
DR15 -5.49 dB -24.44 dB 3:33 20-Vedrò mentr'io sospiro [Act 3]
DR14 -7.25 dB -27.52 dB 1:47 21-È decisa la lite [Act 3]
DR14 -6.56 dB -25.02 dB 4:49 22-Riconosci in questo amplesso [Act 3]
DR15 -10.30 dB -29.03 dB 1:01 23-Eccovi, o caro amico [Act 3]
DR14 -14.83 dB -30.76 dB 0:35 24-Andiamo, andiam, bel paggio [Act 3]
DR12 -9.87 dB -27.16 dB 1:45 25-E Susanna non vien! [Act 3]
DR13 -7.95 dB -26.19 dB 4:59 26-Dove sono i bei momenti [Act 3]
DR15 -12.23 dB -30.15 dB 0:54 27-Io vi dico, signor [Act 3]
DR13 -9.78 dB -26.67 dB 3:31 28-Sull'aria… - Che soave zeffiretto [Act 3]
DR14 -12.99 dB -30.12 dB 0:22 29-Piegato è il foglio [Act 3]
DR13 -12.39 dB -29.00 dB 1:17 30-Ricevete, o padroncina [Act 3]
DR16 -7.36 dB -29.31 dB 2:18 31-Queste sono, Madama, le ragazze del loco [Act 3]
DR13 -8.70 dB -25.94 dB 1:54 32-Ecco la marcia… andiamo [Act 3]
DR12 -6.73 dB -23.91 dB 1:16 33-Allegretto - Amanti costanti [Act 3]
DR14 -10.73 dB -30.31 dB 1:31 34-Andante - Eh già, solita usanza [Act 3]
DR14 -5.57 dB -23.36 dB 1:29 35-Andate, amici [Act 3]
––––––––––––––––––––––––––––––––––––––––

Number of tracks: 35
Official DR value: DR14

Samplerate: 2822400 Hz / PCM Samplerate: 176400 Hz
Channels: 2
Bits per sample: 1
Bitrate: 5645 kbps
Codec: DSD64
================================================================================

––––––––––––––––––––––––––––––––––––––––
Analyzed: Karl Böhm, Orchester der Deutschen Oper Berlin / Mozart: Le Nozze di Figaro
––––––––––––––––––––––––––––––––––––––––

DR Peak RMS Duration Track
––––––––––––––––––––––––––––––––––––––––
DR13 -12.82 dB -28.81 dB 1:41 01-L'ho perduta… me meschina! [Act 4]
DR16 -8.07 dB -29.14 dB 2:17 02-Barbarina, cos'hai? [Act 4]
DR14 -9.23 dB -27.22 dB 3:40 03-Il capro e la capretta [Act 4]
DR15 -10.01 dB -29.55 dB 1:49 04-Nel padiglione a manca [Act 4]
DR14 -8.65 dB -26.16 dB 4:04 05-In quegli anni in cui val poco [Act 4]
DR13 -10.69 dB -28.85 dB 1:34 06-Tutto è disposto [Act 4]
DR14 -8.09 dB -26.55 dB 2:40 07-Aprite un po' quegli occhi [Act 4]
DR13 -14.88 dB -31.46 dB 0:50 08-Signora, ella mi disse [Act 4]
DR13 -14.66 dB -31.00 dB 1:24 09-Giunse alfin il momento [Act 4]
DR13 -11.05 dB -30.39 dB 3:36 10-Deh vieni, non tardar, o gioia bella [Act 4]
DR12 -11.84 dB -30.40 dB 0:33 11-Perfida! e in quella forma meco mentia? [Act 4]
DR12 -9.32 dB -25.81 dB 1:20 12-Pian pianin le andrò più presso [Act 4]
DR14 -6.44 dB -24.70 dB 4:42 13-Ecco qui la mia Susanna [Act 4]
DR14 -7.06 dB -25.80 dB 3:42 14-Tutto è tranquillo e placido [Act 4]
DR13 -8.25 dB -26.59 dB 1:51 15-Pace, pace, mio dolce tesoro [Act 4]
DR13 -5.55 dB -23.72 dB 5:13 16-Gente, gente, all'armi, all'armi [Act 4]
––––––––––––––––––––––––––––––––––––––––

Number of tracks: 16
Official DR value: DR14

Samplerate: 2822400 Hz / PCM Samplerate: 176400 Hz
Channels: 2
Bits per sample: 1
Bitrate: 5645 kbps
Codec: DSD64


Uncompressed SACD ISO size > 2,43 + 2,87 + 1,64 GB


VA - 4 Great Operas (2013) [Esoteric Japan] (9x SACD Box Set) PS3 ISO + Hi-Res FLAC

Disc 4/5: London Symphony Orchestra, Claudio Abbado - Rossini: Il Barbiere Di Siviglia (1971/2013)
PS3 Rip | SACD ISO | DSD64 2.0 > 1-bit/2.8224 MHz | 138:27 minutes | Scans | 3,68 GB
or FLAC (converted with foobar2000 to tracks) 24bit/96 kHz | Scans included | 2,86 GB
Esoteric Japan # ESSG/D-90092~3

bbado's 1971 Barber is undoubtedly my favourite recording of [Barber. - not least for Teresa Berganza's tangy Rosina (spirited but never arch) and Luigi Alva's stylish, nimble Lindoro. Abbado's pacing of the famous 'Rossini crescendos', particularly in the long Act One finale, is masterly, and though it's a studio recording the wit and charm of the entire undertaking leaps out of the speakers.[/quote]

Tracklist:

Disc 1 #01. Sinfonia
Disc 1 #02. Piano, pianissimo [Act 1]
Disc 1 #03. Ecco, ridente in cielo - Ehi, Fiorello? - Gente indiscreta! [Act 1]
Disc 1 #04. Largo al factotum - Ah, ah! che bella vita! [Act 1]
Disc 1 #05. Se il mio nome saper voi bramate - Oh cielo! [Act 1]
Disc 1 #06. All'idea di quel metallo [Act 1]
Disc 1 #07. Una voce poco fa - Sì, sì, la vincerò [Act 1]
Disc 1 #08. La calunnia è un venticello - Ah! che ne dite? [Act 1]
Disc 1 #09. Dunque io son - Ora mi sento meglio [Act 1]
Disc 1 #10. A un dottor della mia sorte [Act 1]

Disc 2 #01. Finora in questa camera - Ehi, di casa! [Act 1]
Disc 2 #02. Alto là! [Act 1]
Disc 2 #03. Ma, signor… [Act 1]
Disc 2 #04. Ma vedi il mio destino! - Pace e gioia sia con voi - Insomma, mio Signore [Act 2]
Disc 2 #05. Contro un cor che accende amore - Bella voce! Bravissima! [Act 2]
Disc 2 #06. Quando mi sei vicina - Bravo, signor barbiere [Act 2]
Disc 2 #07. Don Basilio! - Ah, disgraziato me! - Che vecchio sospettoso! [Act 2]
Disc 2 #08. Il vecchiotto cerca moglie - Dunque voi Don Alonso non conoscete affatto? [Act 2]
Disc 2 #09. Temporale - Alfine, eccoci qua [Act 2]
Disc 2 #10. Ah! qual colpo inaspettato! - Ah, disgraziati noi! [Act 2]
Disc 2 #11. Di sì felice innesto [Act 2]

Opera in two acts (Libretto: Cesare Sterbini after Beaumarchais)

London Symphony Orchestra, Ambrosian Singers
Claudio Abbado - Conductor
John McCarthy - Chorus Master

Luigi Alva (tenor) as Almaviva
Teresa Berganza (mezzo-soprano) as Rosina
Stefania Malagù (mezzo-soprano) as Berta
Renato Cesari (bass) as Fiorello
Hermann Prey (baritone) as Figaro
Paolo Montarsolo (bass) as Basilio
Enzo Dara (baritone) as Bartolo
Luigi Roni (bass) as Un Ufficiale
Theodor Guschlbauer (harpsichord)
Barna Kováts (guitar)


Produced by Rainer Block. Engineered by Hans-Peter Schweigmann.
Recorded on September 11, 1971, Town Hall, Watford, London.

foobar2000 1.4.6 / Dynamic Range Meter 1.1.1

––––––––––––––––––––––––––––––––––––––––
Analyzed: Claudio Abbado, London Symphony Orchestra / Rossini: Il Barbiere di Siviglia
––––––––––––––––––––––––––––––––––––––––

DR Peak RMS Duration Track
––––––––––––––––––––––––––––––––––––––––
DR14 -5.84 dB -24.88 dB 7:22 01-Sinfonia
DR13 -16.07 dB -31.49 dB 2:59 02-Piano, pianissimo [Act 1]
DR14 -6.97 dB -26.42 dB 7:27 03-Ecco, ridente in cielo - Ehi, Fiorello? - Gente indiscreta! [Act 1]
DR15 -5.60 dB -26.63 dB 10:51 04-Largo al factotum - Ah, ah! che bella vita! [Act 1]
DR16 -11.72 dB -30.41 dB 3:50 05-Se il mio nome saper voi bramate - Oh cielo! [Act 1]
DR14 -6.25 dB -25.81 dB 8:44 06-All'idea di quel metallo [Act 1]
DR15 -6.03 dB -26.37 dB 9:41 07-Una voce poco fa - Sì, sì, la vincerò [Act 1]
DR14 -5.55 dB -25.77 dB 7:43 08-La calunnia è un venticello - Ah! che ne dite? [Act 1]
DR14 -6.58 dB -26.40 dB 6:22 09-Dunque io son - Ora mi sento meglio [Act 1]
DR14 -6.09 dB -24.18 dB 6:08 10-A un dottor della mia sorte [Act 1]
––––––––––––––––––––––––––––––––––––––––

Number of tracks: 10
Official DR value: DR14

Samplerate: 2822400 Hz / PCM Samplerate: 176400 Hz
Channels: 2
Bits per sample: 1
Bitrate: 5645 kbps
Codec: DSD64
================================================================================

––––––––––––––––––––––––––––––––––––––––
Analyzed: Claudio Abbado, London Symphony Orchestra / Rossini: Il Barbiere di Siviglia
––––––––––––––––––––––––––––––––––––––––

DR Peak RMS Duration Track
––––––––––––––––––––––––––––––––––––––––
DR14 -6.24 dB -25.71 dB 9:11 01-Finora in questa camera - Ehi, di casa! [Act 1]
DR14 -6.43 dB -26.09 dB 6:36 02-Alto là! [Act 1]
DR11 -5.59 dB -21.22 dB 5:30 03-Ma, signor… [Act 1]
DR15 -9.13 dB -28.69 dB 6:36 04-Ma vedi il mio destino! - Pace e gioia sia con voi - Insomma, mio Signore [Act 2]
DR13 -6.10 dB -25.30 dB 5:06 05-Contro un cor che accende amore - Bella voce! Bravissima! [Act 2]
DR16 -9.85 dB -29.51 dB 3:30 06-Quando mi sei vicina - Bravo, signor barbiere [Act 2]
DR14 -5.17 dB -24.81 dB 11:37 07-Don Basilio! - Ah, disgraziato me! - Che vecchio sospettoso! [Act 2]
DR14 -7.09 dB -26.38 dB 4:04 08-Il vecchiotto cerca moglie - Dunque voi Don Alonso non conoscete affatto? [Act 2]
DR12 -5.84 dB -24.99 dB 4:11 09-Temporale - Alfine, eccoci qua [Act 2]
DR16 -5.21 dB -26.42 dB 8:39 10-Ah! qual colpo inaspettato! - Ah, disgraziati noi! [Act 2]
DR11 -6.08 dB -21.31 dB 2:20 11-Di sì felice innesto [Act 2]
––––––––––––––––––––––––––––––––––––––––

Number of tracks: 11
Official DR value: DR14

Samplerate: 2822400 Hz / PCM Samplerate: 176400 Hz
Channels: 2
Bits per sample: 1
Bitrate: 5645 kbps
Codec: DSD64


Uncompressed SACD ISO size > 2,85 + 2,69 GB


VA - 4 Great Operas (2013) [Esoteric Japan] (9x SACD Box Set) PS3 ISO + Hi-Res FLAC

Disc 6/7: Bayerisches Staatsorchester, Carlos Kleiber - Verdi: La Traviata (1977/2013)
PS3 Rip | SACD ISO | DSD64 2.0 > 1-bit/2.8224 MHz | 109:42 minutes | Scans | 2,91 GB
or FLAC (converted with foobar2000 to tracks) 24bit/96 kHz | Scans included | 2,25 GB
Esoteric Japan # ESSG/D-90094~5

Quite possibly the definitive studio recording of Verdi’s opera masterpiece, this stunning performance, brilliantly conducted by Kleiber, features multiple Grammy-winning tenor Plácido Domingo and the legendary soprano Ileana Cotrubaş.

Tracklist:

Disc 1 #01. Preludio [Act 1]
Disc 1 #02. Dell'invito trascorsa è già l'ora [Act 1]
Disc 1 #03. Libiamo ne' lieti calici (Brindisi) [Act 1]
Disc 1 #04. Che è ciò? [Act 1]
Disc 1 #05. Un dì felice, eterea [Act 1]
Disc 1 #06. Ebben? Che diavol fate? [Act 1]
Disc 1 #07. Si ridesta in ciel l'aurora [Act 1]
Disc 1 #08. E strano! - Ah, fors'è lui [Act 1]
Disc 1 #09. Follie! Delirio vano è questo! - Sempre libera [Act 1]
Disc 1 #10. Lunge da lei - De' miei bollenti spiriti [Act 2]
Disc 1 #11. Annina, donde vieni? - O mio rimorso! [Act 2]
Disc 1 #12. Alfredo? / Per Parigi or or partiva [Act 2]
Disc 1 #13. Pura siccome un angelo [Act 2]
Disc 1 #14. Non sapete quale affetto [Act 2]
Disc 1 #15. Un dì, quando le veneri [Act 2]
Disc 1 #16. Ah! Dite alla giovine [Act 2]
Disc 1 #17. Imponete / Non amarlo ditegli [Act 2]
Disc 1 #18. Dammi tu forza, o cielo! [Act 2]
Disc 1 #19. Che fai? / Nulla [Act 2]
Disc 1 #20. Ah, vive sol quel core [Act 2]
Disc 1 #21. Di Provenza il mar, il suol [Act 2]
Disc 1 #22. Né rispondi d'un padre all'affetto? - No, non udrai rimproveri [Act 2]

Disc 2 #01. Avrem lieta di maschere la notte [Act 2]
Disc 2 #02. Noi siamo zingarelle [Act 2]
Disc 2 #03. Di Madride noi siam mattadori [Act 2]
Disc 2 #04. Alfredo! Voi! [Act 2]
Disc 2 #05. Invitato a qui seguirmi [Act 2]
Disc 2 #06. Ogni suo aver tal femmina [Act 2]
Disc 2 #07. Di sprezzo degno se stesso rende [Act 2]
Disc 2 #08. Alfredo, Alfredo, di questo core [Act 2]
Disc 2 #09. Preludio [Act 3]
Disc 2 #10. Annina? [Act 3]
Disc 2 #11. Tenesta la promessa - Attendo, né a me giungon mai! - Addio del passato [Act 3]
Disc 2 #12. Largo al quadrupede [Act 3]
Disc 2 #13. Signora… / Che t'accadde? / Parigi, o cara, noi lasceremo [Act 3]
Disc 2 #14. Ah, non più! - Ah! Gran Dio! Morir sì giovine [Act 3]
Disc 2 #15. Ah, Violetta! - Voi, Signor? [Act 3]
Disc 2 #16. Prendi, quest'è l'immagine [Act 3]

Opera in three acts (Libretto: Francesco Maria Piave after Alexandre Dumas fis)

Bavarian State Orchestra, Conducted by Carlos Kleiber.
Bayerischer Staatsopernchor, Chorus master & Directed by Wolfgang Baumgart.

Ileana Cotrubaş (soprano) as Violetta Valery
Stefania Malagù (mezzo-soprano) as Flora Bervoix
Helena Jungwirth (soprano) as Annina
Plácido Domingo (tenor) as Alfredo Germont
Sherrill Milnes (baritone) as Giorgio Germont
Walter Gullino (tenor) as Gastone, Visconte de Letorieres
Bruno Grella (baritone) as Barone Douphol
Alfredo Giacomotti (bass) as Marchesc d'Obigny
Giovanni Foiani (bass) as Dottore Grenvil
Walter Gullino (tenor) as Giuseppe
Paul Friess (bass) as Domestico di Flora
Paul Winter (bariton) as Commissionario


Produced by Hans Weber. Engineered by Klaus Scheibe.
Recorded in May 1976 & June 1977, Bürgerbraü-Keller, Münich.

foobar2000 1.4.6 / Dynamic Range Meter 1.1.1

––––––––––––––––––––––––––––––––––––––––
Analyzed: Carlos Kleiber, Bayerisches Staatsorchester / Verdi: La Traviata
––––––––––––––––––––––––––––––––––––––––

DR Peak RMS Duration Track
––––––––––––––––––––––––––––––––––––––––
DR13 -15.88 dB -31.55 dB 3:38 01-Preludio [Act 1]
DR16 -5.01 dB -26.71 dB 4:34 02-Dell'invito trascorsa è già l'ora [Act 1]
DR14 -5.26 dB -25.84 dB 2:55 03-Libiamo ne' lieti calici (Brindisi) [Act 1]
DR15 -8.27 dB -28.85 dB 2:18 04-Che è ciò? [Act 1]
DR14 -9.96 dB -29.05 dB 3:06 05-Un dì felice, eterea [Act 1]
DR12 -10.29 dB -28.06 dB 1:18 06-Ebben? Che diavol fate? [Act 1]
DR12 -4.87 dB -21.84 dB 1:38 07-Si ridesta in ciel l'aurora [Act 1]
DR14 -10.19 dB -29.21 dB 3:37 08-E strano! - Ah, fors'è lui [Act 1]
DR13 -6.87 dB -25.90 dB 4:23 09-Follie! Delirio vano è questo! - Sempre libera [Act 1]
DR13 -11.45 dB -28.96 dB 3:33 10-Lunge da lei - De' miei bollenti spiriti [Act 2]
DR12 -6.60 dB -23.86 dB 2:19 11-Annina, donde vieni? - O mio rimorso! [Act 2]
DR15 -6.82 dB -28.13 dB 3:18 12-Alfredo? / Per Parigi or or partiva [Act 2]
DR15 -5.63 dB -26.75 dB 1:39 13-Pura siccome un angelo [Act 2]
DR13 -5.93 dB -24.96 dB 1:59 14-Non sapete quale affetto [Act 2]
DR13 -10.57 dB -28.07 dB 2:35 15-Un dì, quando le veneri [Act 2]
DR14 -7.01 dB -27.46 dB 4:05 16-Ah! Dite alla giovine [Act 2]
DR14 -5.90 dB -25.85 dB 4:17 17-Imponete / Non amarlo ditegli [Act 2]
DR12 -17.67 dB -32.11 dB 1:43 18-Dammi tu forza, o cielo! [Act 2]
DR13 -6.44 dB -24.14 dB 2:06 19-Che fai? / Nulla [Act 2]
DR16 -9.85 dB -30.29 dB 2:12 20-Ah, vive sol quel core [Act 2]
DR13 -12.89 dB -29.92 dB 4:00 21-Di Provenza il mar, il suol [Act 2]
DR14 -6.17 dB -25.89 dB 2:46 22-Né rispondi d'un padre all'affetto? - No, non udrai rimproveri [Act 2]
––––––––––––––––––––––––––––––––––––––––

Number of tracks: 22
Official DR value: DR14

Samplerate: 2822400 Hz / PCM Samplerate: 176400 Hz
Channels: 2
Bits per sample: 1
Bitrate: 5645 kbps
Codec: DSD64
================================================================================

––––––––––––––––––––––––––––––––––––––––
Analyzed: Carlos Kleiber, Bayerisches Staatsorchester / Verdi: La Traviata
––––––––––––––––––––––––––––––––––––––––

DR Peak RMS Duration Track
––––––––––––––––––––––––––––––––––––––––
DR15 -9.82 dB -29.42 dB 1:02 01-Avrem lieta di maschere la notte [Act 2]
DR13 -7.97 dB -29.15 dB 2:45 02-Noi siamo zingarelle [Act 2]
DR13 -5.28 dB -23.22 dB 2:32 03-Di Madride noi siam mattadori [Act 2]
DR14 -8.56 dB -27.53 dB 3:55 04-Alfredo! Voi! [Act 2]
DR14 -6.49 dB -25.85 dB 2:28 05-Invitato a qui seguirmi [Act 2]
DR12 -4.24 dB -22.06 dB 1:30 06-Ogni suo aver tal femmina [Act 2]
DR17 -5.82 dB -27.99 dB 1:48 07-Di sprezzo degno se stesso rende [Act 2]
DR13 -4.79 dB -23.65 dB 4:03 08-Alfredo, Alfredo, di questo core [Act 2]
DR14 -13.08 dB -31.18 dB 3:37 09-Preludio [Act 3]
DR14 -11.68 dB -31.81 dB 3:53 10-Annina? [Act 3]
DR14 -9.40 dB -29.32 dB 3:59 11-Tenesta la promessa - Attendo, né a me giungon mai! - Addio del passato [Act 3]
DR12 -16.71 dB -31.90 dB 0:48 12-Largo al quadrupede [Act 3]
DR16 -5.04 dB -26.69 dB 4:45 13-Signora… / Che t'accadde? / Parigi, o cara, noi lasceremo [Act 3]
DR13 -5.31 dB -23.93 dB 3:00 14-Ah, non più! - Ah! Gran Dio! Morir sì giovine [Act 3]
DR13 -10.03 dB -28.80 dB 1:43 15-Ah, Violetta! - Voi, Signor? [Act 3]
DR13 -5.20 dB -24.45 dB 3:53 16-Prendi, quest'è l'immagine [Act 3]
––––––––––––––––––––––––––––––––––––––––

Number of tracks: 16
Official DR value: DR14

Samplerate: 2822400 Hz / PCM Samplerate: 176400 Hz
Channels: 2
Bits per sample: 1
Bitrate: 5645 kbps
Codec: DSD64


Uncompressed SACD ISO size > 2,57 + 1,83 GB


VA - 4 Great Operas (2013) [Esoteric Japan] (9x SACD Box Set) PS3 ISO + Hi-Res FLAC

Disc 8/9: Berliner Philharmoniker, Herbert Von Karajan - Puccini: La Bohème (1972/2013)
PS3 Rip | SACD ISO | DSD64 2.0 > 1-bit/2.8224 MHz | 110:13 minutes | Scans | 3,02 GB
or FLAC (converted with foobar2000 to tracks) 24bit/96 kHz | Scans included | 2,36 GB
Esoteric Japan # ESSG/D-90096~7

The score for La Bohème comes to glowing life under Herbert von Karajan's baton, and Mirella Freni and Luciano Pavarotti make beautiful music together as the ill-fated lovers. The smaller parts are wonderfully sung, the comedy sharply profiled, and the pathos contained in such a way that the opera's ending proves remarkably gripping. The disc's sound is excellent.

Tracklist:

Disc 1 #01. Questo Mar Rosso mi ammollisce e assidera [Act 1]
Disc 1 #02. Pensier profondo! [Act 1]
Disc 1 #03. Abbasso, abbasso l'autor! - Legna! Sigari! Bordò! [Act 1]
Disc 1 #04. Si può? - Chi è là? [Act 1]
Disc 1 #05. Io resto per terminar l'articolo di fondo del Castoro [Act 1]
Disc 1 #06. Chi è là?! - Scusi [Act 1]
Disc 1 #07. Si sente meglio? [Act 1]
Disc 1 #08. Che gelida manina [Act 1]
Disc 1 #09. Sì. Mi chiamano Mimì [Act 1]
Disc 1 #10. O soave fanciulla [Act 1]
Disc 1 #11. Aranci, datteri, caldi i marroni! [Act 2]
Disc 1 #12. Chi guardi? [Act 2]
Disc 1 #13. Viva Parpignol! [Act 2]
Disc 1 #14. Oh! - Essa! - Musetta! [Act 2]
Disc 1 #15. Quando me n'vò [Act 2]
Disc 1 #16. Caro! Fuori il danaro! [Act 2]

Disc 2 #01. Ohè, là, le guardie! Aprite! [Act 3]
Disc 2 #02. Sa dirmi, scusi, qual'è l'osteria [Act 3]
Disc 2 #03. Mimì! - Speravo di trovarvi qui [Act 3]
Disc 2 #04. Marcello. Finalmente! [Act 3]
Disc 2 #05. Mimì è una civetta [Act 3]
Disc 2 #06. Mimì è tanto malata! [Act 3]
Disc 2 #07. Donde lieta uscì al tuo grido d'amore [Act 3]
Disc 2 #08. Dunque è proprio finita! [Act 3]
Disc 2 #09. In un coupé? [Act 4]
Disc 2 #10. O Mimì, tu più non torni [Act 4]
Disc 2 #11. Gavotta! - Minuetto! - Pavanella! - Fandango! [Act 4]
Disc 2 #12. C'è Mimì! [Act 4]
Disc 2 #13. Vecchia zimarra, senti [Act 4]
Disc 2 #14. Sono andati? Fingevo di dormire [Act 4]
Disc 2 #15. Oh Dio! Mimì! [Act 4]

Opera in four acts (Libretto: Giuseppe Giacosa & Luigi Illica after Henry Murger)

Chor der Deutschen Oper Berlin, Berliner Philharmoniker, Schonberger Sangerknaben
Herbert von Karajan - Conductor

Mirella Freni (soprano) as Mimi
Luciano Pavarotti (tenor) as Rodolfo
Nicolai Ghiaurov (bass) as Colline
Elizabeth Harwood (soprano) as Musetta
Rolando Panerai (baritone) as Marcello
Gianni Maffeo (baritone) as Schaunard
Gernot Pietsch (tenor) as Parpignol
Michel Sénéchal (tenor) as Alcindoro/Benoit
Gernot Pietsch - (tenor) Parpignol
Hans-Dieter Appelt (bass) - Sergente dei Doganieri
Hans-Dietrich Pohl (bariton) - Un Doganiere


Produced by Ray Minshull, James Mallinson. Engineered by Gordon Parry, James Lock, Colin Moorfoot.
Recorded on October 13, 1972, Jesus-Christus-Kirche, Berlin.

foobar2000 1.4.6 / Dynamic Range Meter 1.1.1

––––––––––––––––––––––––––––––––––––––––
Analyzed: Herbert von Karajan, Berliner Philharmoniker / Puccini: La Bohème
––––––––––––––––––––––––––––––––––––––––

DR Peak RMS Duration Track
––––––––––––––––––––––––––––––––––––––––
DR13 -6.18 dB -24.01 dB 4:31 01-Questo Mar Rosso mi ammollisce e assidera [Act 1]
DR13 -6.26 dB -26.05 dB 1:11 02-Pensier profondo! [Act 1]
DR13 -6.46 dB -24.19 dB 3:51 03-Abbasso, abbasso l'autor! - Legna! Sigari! Bordò! [Act 1]
DR14 -5.98 dB -25.28 dB 5:18 04-Si può? - Chi è là? [Act 1]
DR13 -10.54 dB -30.23 dB 1:09 05-Io resto per terminar l'articolo di fondo del Castoro [Act 1]
DR13 -9.94 dB -29.12 dB 1:11 06-Chi è là?! - Scusi [Act 1]
DR13 -8.40 dB -27.53 dB 2:42 07-Si sente meglio? [Act 1]
DR11 -6.18 dB -23.12 dB 4:37 08-Che gelida manina [Act 1]
DR13 -5.75 dB -26.00 dB 5:58 09-Sì. Mi chiamano Mimì [Act 1]
DR12 -6.93 dB -24.69 dB 4:19 10-O soave fanciulla [Act 1]
DR12 -5.57 dB -21.54 dB 2:53 11-Aranci, datteri, caldi i marroni! [Act 2]
DR13 -6.08 dB -23.90 dB 3:08 12-Chi guardi? [Act 2]
DR12 -5.77 dB -23.28 dB 2:21 13-Viva Parpignol! [Act 2]
DR13 -6.14 dB -24.99 dB 3:31 14-Oh! - Essa! - Musetta! [Act 2]
DR11 -6.29 dB -22.54 dB 5:29 15-Quando me n'vò [Act 2]
DR10 -5.75 dB -20.59 dB 2:17 16-Caro! Fuori il danaro! [Act 2]
––––––––––––––––––––––––––––––––––––––––

Number of tracks: 16
Official DR value: DR12

Samplerate: 2822400 Hz / PCM Samplerate: 176400 Hz
Channels: 2
Bits per sample: 1
Bitrate: 5645 kbps
Codec: DSD64
================================================================================

––––––––––––––––––––––––––––––––––––––––
Analyzed: Herbert von Karajan, Berliner Philharmoniker / Puccini: La Bohème
––––––––––––––––––––––––––––––––––––––––

DR Peak RMS Duration Track
––––––––––––––––––––––––––––––––––––––––
DR21 -6.23 dB -31.12 dB 4:17 01-Ohè, là, le guardie! Aprite! [Act 3]
DR14 -10.42 dB -29.86 dB 1:03 02-Sa dirmi, scusi, qual'è l'osteria [Act 3]
DR10 -6.15 dB -22.86 dB 5:05 03-Mimì! - Speravo di trovarvi qui [Act 3]
DR12 -6.30 dB -23.19 dB 1:18 04-Marcello. Finalmente! [Act 3]
DR11 -6.78 dB -22.97 dB 1:27 05-Mimì è una civetta [Act 3]
DR12 -7.11 dB -23.65 dB 3:21 06-Mimì è tanto malata! [Act 3]
DR12 -8.29 dB -26.06 dB 3:22 07-Donde lieta uscì al tuo grido d'amore [Act 3]
DR13 -5.44 dB -24.17 dB 6:15 08-Dunque è proprio finita! [Act 3]
DR14 -5.62 dB -25.77 dB 1:45 09-In un coupé? [Act 4]
DR13 -6.32 dB -24.92 dB 5:28 10-O Mimì, tu più non torni [Act 4]
DR13 -6.87 dB -24.92 dB 1:40 11-Gavotta! - Minuetto! - Pavanella! - Fandango! [Act 4]
DR14 -5.90 dB -26.13 dB 6:08 12-C'è Mimì! [Act 4]
DR14 -13.34 dB -30.38 dB 2:32 13-Vecchia zimarra, senti [Act 4]
DR13 -8.16 dB -27.08 dB 5:51 14-Sono andati? Fingevo di dormire [Act 4]
DR13 -5.70 dB -25.21 dB 6:14 15-Oh Dio! Mimì! [Act 4]
––––––––––––––––––––––––––––––––––––––––

Number of tracks: 15
Official DR value: DR13

Samplerate: 2822400 Hz / PCM Samplerate: 176400 Hz
Channels: 2
Bits per sample: 1
Bitrate: 5645 kbps
Codec: DSD64


Uncompressed SACD ISO size > 2,18 + 2,23 GB

ESOTERIC equipment used for re-mastering:
The criterion of re-mastering is to faithfully capture the quality of the original master. ESOTERIC’s flag ship D/A converters, model D-01VU, Rubidium master clock generator model G-0Rb and ESOTERIC MEXCEL interconnect cables and power cords, were all used for this re-mastering session. This combination of highly advanced technology greatly contributed to capturing the high quality sound of the original master.
Re-Issue Produced by Motoaki Ohmachi (ESOTERIC COMPANY)
Mastering Engineer: Kazuie Sugimoto (Victor Creative Media Co., Ltd. Mastering Center)

Scans of the Box included in the last archive.
>