Tags
Language
Tags

VA - Groove Of ESSR: Funk, Disco, Jazz From Soviet Estonia 1974-1988 (2019) [Official Digital Download 24/96]

Posted By: delpotro
VA - Groove Of ESSR: Funk, Disco, Jazz From Soviet Estonia 1974-1988 (2019) [Official Digital Download 24/96]

VA - Groove Of ESSR: Funk, Disco, Jazz From Soviet Estonia 1974-1988 (2019)
FLAC (tracks) 24-bit/96 kHz | Front Cover | Time - 41:27 minutes | 833 MB
Disco, Funk, Jazz-Funk | Label: Funk Embassy Records, Official Digital Download

Groovier side of the Iron Curtain is uncovered via the 11-track compilation out on 12" vinyl, CD and digitally. First of its kind for Funk Embassy Records, the compilers have dug the archives of Estonian Radio for funk, soul-jazz, disco, instrumentals, library music and covers. Influences from West made it to Soviet Estrada musicians on one hand; to rock, jazz, folk and fusion artists on the other. Recorded between 1974-1988, this is the sound of Estonian artists as heard at music halls, stadiums, radio, TV shows and cafeterias.

Selection ranges from folk-funk, psychedelic soul, dancefloor certified disco, Isaac Hayes reminiscent blues-funk, contemplative jazz-funk, Piero Umiliani-esque library music, funk-rock, in-your-face b-boy break to a flute-led master piece by Uno Naissoo – one of the founders of the Estonian jazz scene who organized the notorious Tallinn Jazz Festivals (1949-1967).

Some of the tracks were unreleased - instrumental versions by the Estonian TV and Radio Estrada Orchestra "Kesköösamba" (1977); and "Mälestuste Teel" (1974, trnl. “On The Road of Memories”) carried by a sentiment that predicts composer Raivo Tammik’s escape to Germany a year later; a cover of Carita Holmström, "Näed vaid oma silmi" with the former Soviet child star Tiiu Varik belting her unique-timbred guts out. Other tracks are local classics, and some have seen the light of day before, be it cassettes, compilation CDs or repressed vinyls.

Inspired by the resurgence of the spirit of Funk around the globe, the compilers have taken the intention to give a taste of Estonian music in the bygone Soviet era during which the government attempted to control the artists and music being made. Nevertheless, a lot of influences made it through, as Estonia was the westernmost country in the USSR. By all means, the selection isn't all-encompassing. It's just resonating with represses coming from all over the world that exhibit music with an exotically local touch.

The compilation released on vinyl, CD and digitally will be the first of its kind for the Estonian bred imprint Funk Embassy Records which focuses on releasing both archival findings as well as contemporary funk, soul, disco music. Since 2016 a. Estonian Funk Embassy has been active as a radio show, concert promoter, DJ-party, booking and management agency and now as a record label.

Tracklist:
1. Collage – Mets Neidude Vahel (03:36)
2. Marju Kuut – Üksi, kuid vabana (03:15)
3. Tiiu Varik – Näed vaid oma silmi (03:15)
4. Tõnis Mägi & Music Seif – Sa haara kinni mu käest (03:32)
5. Els Himma – Kesköö (02:47)
6. Valter Ojakäär – Rasked veosed (04:02)
7. Uno Naissoo – Marss-ekspromt (02:50)
8. Gunnar Graps & Magnetic Band - Leidmine – Leidmine (03:19)
9. Eesti TV & Raadio Estraadiorkester – Kesköösamba (Instrumental) (04:10)
10. Tarmo & Toomas Urb feat. Vanemõde – Välgud peeglis (Short Version) (05:01)
11. Eesti Raadio Estraadiorkester – Mälestuste teel (Instrumental) (05:42)

foobar2000 1.4.1 / Dynamic Range Meter 1.1.1
log date: 2021-10-07 18:12:26

––––––––––––––––––––––––––––––––––––––––
Analyzed: Collage / Groove of ESSR: Funk, Disco, Jazz from Soviet Estonia (1)
Eesti Raadio Estraadiorkester / Groove of ESSR: Funk, Disco, Jazz from Soviet Estonia (2)
Eesti TV & Raadio Estraadiorkester / Groove of ESSR: Funk, Disco, Jazz from Soviet Estonia (3)
Els Himma / Groove of ESSR: Funk, Disco, Jazz from Soviet Estonia (4)
Gunnar Graps & Magnetic Band - Leidmine / Groove of ESSR: Funk, Disco, Jazz from Soviet Estonia (5)
Marju Kuut / Groove of ESSR: Funk, Disco, Jazz from Soviet Estonia (6)
Tarmo & Toomas Urb feat. Vanemõde / Groove of ESSR: Funk, Disco, Jazz from Soviet Estonia (7)
Tiiu Varik / Groove of ESSR: Funk, Disco, Jazz from Soviet Estonia (8)
Tõnis Mägi & Music Seif / Groove of ESSR: Funk, Disco, Jazz from Soviet Estonia (9)
Uno Naissoo / Groove of ESSR: Funk, Disco, Jazz from Soviet Estonia (10)
Valter Ojakäär / Groove of ESSR: Funk, Disco, Jazz from Soviet Estonia (11)
––––––––––––––––––––––––––––––––––––––––

DR Peak RMS Duration Track
––––––––––––––––––––––––––––––––––––––––
DR10 -0.10 dB -11.62 dB 3:36 01-Mets Neidude Vahel
DR10 -0.10 dB -12.96 dB 5:42 11-Mälestuste teel (Instrumental)
DR9 -0.10 dB -10.47 dB 4:10 09-Kesköösamba (Instrumental)
DR7 -0.09 dB -9.18 dB 2:47 05-Kesköö
DR7 -0.10 dB -8.66 dB 3:19 08-Leidmine
DR9 -0.10 dB -11.23 dB 3:15 02-Üksi, kuid vabana
DR9 -0.10 dB -11.84 dB 5:01 10-Välgud peeglis (Short Version)
DR9 -0.10 dB -11.31 dB 3:15 03-Näed vaid oma silmi
DR9 -0.10 dB -10.30 dB 3:32 04-Sa haara kinni mu käest
DR8 -0.48 dB -11.88 dB 2:50 07-Marss-ekspromt
DR11 -0.10 dB -12.64 dB 4:02 06-Rasked veosed
––––––––––––––––––––––––––––––––––––––––

Number of tracks: 11
Official DR value: DR9

Samplerate: 96000 Hz
Channels: 2
Bits per sample: 24
Bitrate: 2814 kbps
Codec: FLAC
================================================================================


Thanks to the Original customer!