Tags
Language
Tags

Lowell Lo, Prudence Liew & Angelita Li - Salute Deux (2004) SACD ISO + DSD64 + Hi-Res FLAC

Posted By: HDAtall
Lowell Lo, Prudence Liew & Angelita Li - Salute Deux (2004) SACD ISO + DSD64 + Hi-Res FLAC

Lowell Lo, Prudence Liew & Angelita Li - Salute Deux (2004)
SACD Rip | SACD ISO | DST64 2.0 > 1-bit/2.8224 MHz | 43:10 minutes | Scans NOT included | 780 MB
or DSD64 2.0 (from SACD-ISO to Tracks.dsf) > 1-bit/2.8224 MHz | Scans NOT included | 1,13 GB
or FLAC (carefully converted & encoded to tracks) 24bit/48 kHz | Scans NOT included | 549 MB

Salute Deux is a SACD compilation by the 80's Canto-pop songs rearranged to jazz style by Roel Garcia. It features vocals by Lowell Lo, Prudence Lau and Angelita Li.

Tracklist:

01. Prudence Liew - Reflections
02. Lowell Lo - Starlite
03. Angelita Li - Everchange
04. Angelita Li - Once More
05. Prudence Liew - Life's Journey
06. Lowell Lo - Love's Labour
07. Prudence Liew - Starstruck
08. Angelita Li - Wish
09. Angelita Li - Because
10. Prudence Liew - Hopeless

foobar2000 1.6.7 / Dynamic Range Meter 1.1.1

––––––––––––––––––––––––––––––––––––––––
Analyzed: Various / Salute Deux
––––––––––––––––––––––––––––––––––––––––

DR Peak RMS Duration Track
––––––––––––––––––––––––––––––––––––––––
DR11 -5.67 dB -19.52 dB 3:54 01-Reflections
DR12 -7.30 dB -21.48 dB 4:30 02-Starlite
DR12 -6.81 dB -21.89 dB 3:42 03-Everchange
DR9 -6.36 dB -17.59 dB 4:42 04-Once More
DR11 -6.08 dB -19.57 dB 4:28 05-Life's Journey
DR10 -6.53 dB -17.91 dB 5:22 06-Love's Labour
DR11 -5.69 dB -18.18 dB 4:12 07-Starstruck
DR10 -6.34 dB -18.52 dB 4:42 08-Wish
DR11 -5.65 dB -19.26 dB 4:17 09-Because
DR11 -5.62 dB -18.54 dB 3:21 10-Hopeless
––––––––––––––––––––––––––––––––––––––––

Number of tracks: 10
Official DR value: DR11

Samplerate: 2822400 Hz / PCM Samplerate: 176400 Hz
Channels: 2
Bits per sample: 24
Bitrate: 5645 kbps
Codec: DST64


Thanks to the Original ripper!
Uncompressed SACD ISO size > 756 MB
>