Please register here if you want to download anything!

If domain in your address bar is different from the list below
PLEASE LEAVE THAT SITE IMMEDIATELY
❗IT'S A DANGEROUS FAKE❗



Spicy Magazines for Men! ;-)

Various Artists - The Collection: An Adventure In Sound (2016) [Audio Fidelity] MCH PS3 ISO + Hi-Res FLAC

Posted By: HDAtall
Various Artists - The Collection: An Adventure In Sound (2016) [Audio Fidelity] MCH PS3 ISO + Hi-Res FLAC

Various Artists - The Collection: An Adventure In Sound (2016) [Audio Fidelity]
PS3 Rip | SACD ISO | DST64 2.0 & 4.0 > 1-bit/2.8224 MHz | 79:26 minutes | Scans included | 3,81 GB
or FLAC 2.0 Stereo(converted with foobar2000 to tracks) 24bit/96 kHz | Full Scans included | 1,87 GB
Features Stereo and Quadrophonic Surround Sound | SACD Mastering by Steven Hoffman | Audio Fidelity # AFZ5 240

The Collection is a special compilation conceived and produced by Audio Fideity to showcase the superb sound quality of our 2-track stereo, Super Audio Compact Disc and 4.0 releases. The Collection takes the music and the artists to a new level, it's like listening to the music for the first time. The release includes a colorful and informative 12-page booklet with pictures and historical notes on each artist and selected track.

Tracklist:

01. Bob Dylan - Lay Lady Lay
02. Miles Davis - Miles Runs the Voodoo Down
03. Santana - Black Magic Woman-Gypsy Queen
04. Jeff Beck Group - Definitely Maybe
05. Earth Wind and Fire - Shining Star
06. The Friends Of Distinction - Grazing In The Grass
07. The O'Jays - For the Love of Money
08. Henry Mancini and His Orchestra - Peter Gunn
09. Herbie Hancock - Watermelon Man
10. Blue Öyster Cult - 7 Screaming Diz-Busters
11. Harry Nilsson - Without You
12. The Isley Brothers - That Lady, Parts 1 & 2
13. Harold Melvin and The Blue Notes - Wake Up Everybody
14. The Mahavishnu Orchestra with John McLaughlin - Birds Of Fire

Inspired & Produced by Mark Wilder & Bruce Dickinson.
4.0 Analog to Hi-Def Digital transfer & Mastering by Steve Hoffman & Stephen Marsch.

foobar2000 1.4.4 / Dynamic Range Meter 1.1.1

––––––––––––––––––––––––––––––––––––––––
Analyzed: Various Artists / The COLLECTION
––––––––––––––––––––––––––––––––––––––––

DR Peak RMS Duration Track
––––––––––––––––––––––––––––––––––––––––
DR9 -9.42 dB -25.65 dB 3:24 01-01 Lay Lady Lay
DR9 -5.09 dB -22.86 dB 13:56 02-02 Miles Runs the Voodoo Down
DR9 -8.63 dB -24.69 dB 5:27 03-03 Black Magic Woman-Gypsy Queen
DR9 -10.96 dB -27.82 dB 5:04 04-04 Definitely Maybe
DR11 -10.89 dB -28.37 dB 2:55 05-05 Shining Star
DR7 -9.70 dB -23.19 dB 3:03 06-06 Grazing In The Grass
DR12 -8.95 dB -29.46 dB 7:28 07-07 For the Love of Money
DR12 -4.66 dB -24.87 dB 2:07 08-08 Peter Gunn
DR10 -11.14 dB -29.63 dB 6:38 09-09 Watermelon Man
DR9 -7.89 dB -25.71 dB 7:04 10-10 7 Screaming Diz-Busters
DR9 -7.89 dB -26.91 dB 3:25 11-11 Without You
DR9 -10.58 dB -25.39 dB 5:33 12-12 That Lady Pts 1 and 2
DR12 -10.38 dB -29.36 dB 7:37 13-13 Wake Up Everybody
DR9 -10.83 dB -25.74 dB 5:45 14-14 Birds of Fire
––––––––––––––––––––––––––––––––––––––––

Number of tracks: 14
Official DR value: DR10

Samplerate: 2822400 Hz / PCM Samplerate: 176400 Hz
Channels: 5
Bits per sample: 24
Bitrate: 14112 kbps
Codec: DST64
================================================================================

––––––––––––––––––––––––––––––––––––––––
Analyzed: Various Artists / The COLLECTION
––––––––––––––––––––––––––––––––––––––––

DR Peak RMS Duration Track
––––––––––––––––––––––––––––––––––––––––
DR11 -5.97 dB -20.70 dB 3:24 01-01 Lay Lady Lay
DR11 -8.17 dB -22.30 dB 14:04 02-02 Miles Runs the Voodoo Down
DR12 -8.94 dB -23.90 dB 5:31 03-03 Black Magic Woman-Gypsy Queen
DR13 -8.52 dB -25.28 dB 5:04 04-04 Definitely Maybe
DR14 -8.18 dB -24.84 dB 2:55 05-05 Shining Star
DR13 -8.36 dB -23.63 dB 3:01 06-06 Grazing In The Grass
DR16 -4.48 dB -22.99 dB 7:22 07-07 For the Love of Money
DR10 -8.43 dB -21.91 dB 2:09 08-08 Peter Gunn
DR14 -6.02 dB -22.62 dB 6:26 09-09 Watermelon Man
DR11 -8.32 dB -22.07 dB 7:04 10-10 7 Screaming Diz-Busters
DR14 -7.26 dB -25.41 dB 3:25 11-11 Without You
DR12 -7.19 dB -20.85 dB 5:38 12-12 That Lady Pts 1 and 2
DR12 -9.51 dB -24.38 dB 7:37 13-13 Wake Up Everybody
DR10 -9.17 dB -21.74 dB 5:46 14-14 Birds of Fire
––––––––––––––––––––––––––––––––––––––––

Number of tracks: 14
Official DR value: DR12

Samplerate: 2822400 Hz / PCM Samplerate: 176400 Hz
Channels: 2
Bits per sample: 24
Bitrate: 5645 kbps
Codec: DST64


Thanks to PS³SACD!
Uncompressed SACD ISO size > 3,61 GB
>