Van Halen - The Collection (2015) [Official Digital Download 24 bit/192kHz]

Posted By: HDV
Van Halen - The Collection (2015) [Official Digital Download 24 bit/192kHz]

Van Halen - The Collection (2015)
FLAC (tracks) 24 bit/192 kHz | Time - 327:45 minutes | 10,5 GB
FLAC (tracks) 24 bit/96 kHz | Time - 327:45 minutes | 7,11 GB
Studio Master, Official Digital Download | Artwork: Front cover(s)

And again VH's David Lee Roth era… For these 2015 Remastered Releases, Van Halen enlisted the help of mastering enginer Chris Bellman, who remastered the original albums for Bernie Grundman Studios, Hollywood, CA. The remasters have been cut straight from the original quarter-inch tapes.


Van Halen - The Collection (2015) [Official Digital Download 24 bit/192kHz]

Van Halen - Van Halen (1978/2015)
FLAC (tracks) 24 bit/192 kHz | Time - 35:18 minutes | 1,42 GB
FLAC (tracks) 24 bit/96 kHz | Time - 35:18 minutes | 801 MB
Studio Master, Official Digital Download | Artwork: Front cover

Van Halen’s eponymous debut rewrote the rules of rock. This monumental classic remains one of music’s greatest debuts and is widely regarded as an album that revolutionized rock n’ roll. It has sold over ten million copies worldwide, earning Diamond status by the RIAA. It features the massive hit singles, “Runnin’ With The Devil,” “Eruption” and “You Really Got Me”.

Tracklist:

01 - Runnin' With The Devil
02 - Eruption
03 - You Really Got Me
04 - Ain't Talkin' 'Bout Love
05 - I'm The One
06 - Jamie's Cryin'
07 - Atomic Punk
08 - Feel Your Love Tonight
09 - Little Dreamer
10 - Ice Cream Man
11 - On Fire

Analyzed: Van Halen / Van Halen
––––––––––––––––––––––––––––––––––––––––

DR Peak RMS Duration Track
––––––––––––––––––––––––––––––––––––––––
DR13 -0.81 dB -17.49 dB 3:35 01-Runnin' With The Devil (2015 Remastered Version)
DR12 -3.27 dB -18.17 dB 1:42 02-Eruption (2015 Remastered Version)
DR12 -0.73 dB -16.22 dB 2:37 03-You Really Got Me (2015 Remastered Version)
DR13 -0.92 dB -16.08 dB 3:47 04-Ain't Talkin' 'Bout Love (2015 Remastered Version)
DR12 -0.01 dB -15.47 dB 3:45 05-I'm The One (2015 Remastered Version)
DR13 -0.92 dB -17.27 dB 3:29 06-Jamie's Cryin' (2015 Remastered Version)
DR13 -1.16 dB -16.14 dB 3:00 07-Atomic Punk (2015 Remastered Version)
DR13 -1.12 dB -16.06 dB 3:41 08-Feel Your Love Tonight (2015 Remastered Version)
DR13 -0.35 dB -16.47 dB 3:22 09-Little Dreamer (2015 Remastered Version)
DR13 -0.58 dB -17.60 dB 3:18 10-Ice Cream Man (2015 Remastered Version)
DR15 -0.01 dB -16.56 dB 3:02 11-On Fire (2015 Remastered Version)
––––––––––––––––––––––––––––––––––––––––

Number of tracks: 11
Official DR value: DR13

Samplerate: 192000 Hz
Channels: 2
Bits per sample: 24
Bitrate: 5520 kbps
Codec: FLAC
================================================================================



Van Halen - The Collection (2015) [Official Digital Download 24 bit/192kHz]

Van Halen - Van Halen II (1979/2015)
FLAC (tracks) 24 bit/192 kHz | Time - 31:47 minutes | 1,22 GB
FLAC (tracks) 24 bit/96 kHz | Time - 31:47 minutes | 703 MB
Studio Master, Official Digital Download | Artwork: Front cover

Van Halen II found the legendary rock quartet matching the brilliance they displayed with their seminal debut. The five-time Platinum recording features the bona fide hits “Dance The Night Away” and “Beautiful Girls,” both of which charted on the Billboard Hot 100. The album was a massive success reaching the Billboard Top Ten.

Tracklist:

01 - You're No Good
02 - Dance The Night Away
03 - Somebody Get Me A Doctor
04 - Bottoms Up!
05 - Outta Love Again
06 - Light Up The Sky
07 - Spanish Fly
08 - D.O.A.
09 - Women In Love…
10 - Beautiful Girls

Analyzed: Van Halen / Van Halen II
––––––––––––––––––––––––––––––––––––––––

DR Peak RMS Duration Track
––––––––––––––––––––––––––––––––––––––––
DR13 -0.68 dB -17.29 dB 3:17 01-You're No Good (2015 Remastered Version)
DR12 -1.01 dB -16.36 dB 3:09 02-Dance The Night Away (2015 Remastered Version)
DR12 -0.80 dB -15.94 dB 2:54 03-Somebody Get Me A Doctor (2015 Remastered Version)
DR13 0.00 dB -15.69 dB 3:06 04-Bottoms Up! (2015 Remastered Version)
DR13 0.00 dB -15.53 dB 2:53 05-Outta Love Again (2015 Remastered Version)
DR13 0.00 dB -15.58 dB 3:12 06-Light Up The Sky (2015 Remastered Version)
DR16 0.00 dB -22.58 dB 1:01 07-Spanish Fly (2015 Remastered Version)
DR13 -0.15 dB -16.06 dB 4:10 08-D.O.A. (2015 Remastered Version)
DR14 -0.10 dB -16.96 dB 4:09 09-Women In Love….. (2015 Remastered Version)
DR13 0.00 dB -14.81 dB 3:57 10-Beautiful Girls (2015 Remastered Version)
––––––––––––––––––––––––––––––––––––––––

Number of tracks: 10
Official DR value: DR13

Samplerate: 192000 Hz
Channels: 2
Bits per sample: 24
Bitrate: 5217 kbps
Codec: FLAC
================================================================================



Van Halen - The Collection (2015) [Official Digital Download 24 bit/192kHz]

Van Halen - Women and Children First (1980/2015)
FLAC (tracks) 24 bit/192 kHz | Time - 33:33 minutes | 1,28 GB
FLAC (tracks) 24 bit/96 kHz | Time - 33:33 minutes | 741 MB
Studio Master, Official Digital Download | Artwork: Front cover

Women And Children First, Van Halen’s 1980 classic and three-time Platinum recording, features compositions written solely by the band. The undeniable masterpiece found Van Halen developing their sound and includes the rock anthems “And The Cradle Will Rock…,” “Everybody Wants Some!!” and “Could This Be Magic?”.

Tracklist:

01 - And The Cradle Will Rock…
02 - Everybody Wants Some
03 - Fools
04 - Romeo Delight
05 - Tora! Tora!
06 - Loss Of Control
07 - Take Your Whiskey Home
08 - Could This Be Magic
09 - In A Simple Rhyme

Analyzed: Van Halen / Women And Children First
––––––––––––––––––––––––––––––––––––––––

DR Peak RMS Duration Track
––––––––––––––––––––––––––––––––––––––––
DR13 -0.03 dB -15.86 dB 3:33 01-And The Cradle Will Rock… (2015 Remastered Version)
DR12 -1.68 dB -16.84 dB 5:07 02-Everybody Wants Some!! (2015 Remastered Version)
DR12 -0.61 dB -16.12 dB 5:56 03-Fools (2015 Remastered Version)
DR12 -1.37 dB -16.37 dB 4:20 04-Romeo Delight (2015 Remastered Version)
DR13 -1.23 dB -18.07 dB 0:57 05-Tora! Tora! (2015 Remastered Version)
DR12 -1.58 dB -16.41 dB 2:38 06-Loss Of Control (2015 Remastered Version)
DR14 -0.19 dB -16.28 dB 3:11 07-Take Your Whiskey Home (2015 Remastered Version)
DR13 -5.37 dB -21.56 dB 3:10 08-Could This Be Magic? (2015 Remastered Version)
DR13 0.00 dB -16.76 dB 4:40 09-In A Simple Rhyme (2015 Remastered Version)
––––––––––––––––––––––––––––––––––––––––

Number of tracks: 9
Official DR value: DR13

Samplerate: 192000 Hz
Channels: 2
Bits per sample: 24
Bitrate: 5235 kbps
Codec: FLAC
================================================================================



Van Halen - The Collection (2015) [Official Digital Download 24 bit/192kHz]

Van Halen - Fair Warning (1981/2015)
FLAC (tracks) 24 bit/192 kHz | Time - 31:10 minutes | 1,2 GB
FLAC (tracks) 24 bit/96 kHz | Time - 31:10 minutes | 689 MB
Studio Master, Official Digital Download | Artwork: Front cover

Fair Warning is Van Halen’s 1981 gem. The under-appreciated masterpiece is certified two-time Platinum. The album displayed each member’s prowess and their undeniable chemistry as a group. It features some of the band’s fiercest and grittiest works to date including the rock classics “Mean Street,” “Sinner’s Swing!,” “Unchained” and “Push Comes To Shove”.

Tracklist:

01 - Mean Street
02 - Dirty Movies
03 - Sinner's Swing!
04 - Hear About It Later
05 - Unchained
06 - Push Comes To Shove
07 - So This Is Love
08 - Sunday Afternoon In The Park
09 - One Foot Out The Door

Analyzed: Van Halen / Fair Warning
––––––––––––––––––––––––––––––––––––––––

DR Peak RMS Duration Track
––––––––––––––––––––––––––––––––––––––––
DR13 -0.89 dB -16.76 dB 5:00 01-Mean Street (2015 Remastered Version)
DR14 -2.32 dB -18.22 dB 4:07 02-"Dirty Movies" (2015 Remastered Version)
DR13 -0.16 dB -15.86 dB 3:09 03-Sinner's Swing! (2015 Remastered Version)
DR12 0.00 dB -14.94 dB 4:32 04-Hear About It Later (2015 Remastered Version)
DR13 -0.56 dB -15.86 dB 3:29 05-Unchained (2015 Remastered Version)
DR15 -2.10 dB -19.30 dB 3:49 06-Push Comes To Shove (2015 Remastered Version)
DR13 -0.20 dB -15.72 dB 3:05 07-So This Is Love? (2015 Remastered Version)
DR13 -2.44 dB -17.95 dB 1:58 08-Sunday Afternoon In The Park (2015 Remastered Version)
DR12 0.00 dB -13.81 dB 2:01 09-One Foot Out The Door (2015 Remastered Version)
––––––––––––––––––––––––––––––––––––––––

Number of tracks: 9
Official DR value: DR13

Samplerate: 192000 Hz
Channels: 2
Bits per sample: 24
Bitrate: 5412 kbps
Codec: FLAC
================================================================================



Van Halen - The Collection (2015) [Official Digital Download 24 bit/192kHz]

Van Halen - Diver Down (1982/2015)
FLAC (tracks) 24 bit/192 kHz | Time - 31:22 minutes | 1,25 GB
FLAC (tracks) 24 bit/96 kHz | Time - 31:22 minutes | 704 MB
Studio Master, Official Digital Download | Artwork: Front cover

Diver Down is the fifth studio album by the legendary rock band. It reached #3 on the Billboard 200 and spent sixty-five weeks on the charts. Certified four-time Platinum, the album features a slew of the band’s biggest hits including “(Oh) Pretty Woman,” “Dancing In The Street,” “Secrets,” “Where Have All The Good Times Gone!” and “Little Guitars.” It is one of the band’s best works.

Tracklist:

01 - Where Have All The Good Times Gone!
02 - Hang 'em High
03 - Cathedral
04 - Secrets
05 - Intruder
06 - (Oh) Pretty Woman
07 - Dancing In The Street
08 - Little Guitars (Intro)
09 - Little Guitars
10 - Big Bad Bill (Is Sweet William Now)
11 - The Full Bug
12 - Happy Trails

Analyzed: Van Halen / Diver Down
––––––––––––––––––––––––––––––––––––––––

DR Peak RMS Duration Track
––––––––––––––––––––––––––––––––––––––––
DR12 -1.85 dB -16.22 dB 3:05 01-Where Have All The Good Times Gone! (2015 Remastered Version)
DR13 -0.03 dB -15.03 dB 3:28 02-Hang' Em High (2015 Remastered Version)
DR10 -5.09 dB -20.34 dB 1:23 03-Cathedral (2015 Remastered Version)
DR14 -1.07 dB -17.01 dB 3:25 04-Secrets (2015 Remastered Version)
DR13 -0.12 dB -14.98 dB 1:39 05-Intruder (2015 Remastered Version)
DR11 -0.11 dB -13.78 dB 2:54 06-(Oh) Pretty Woman (2015 Remastered Version)
DR14 0.00 dB -15.38 dB 3:45 07-Dancing In The Street (2015 Remastered Version)
DR13 -5.09 dB -21.91 dB 0:42 08-Little Guitars (Intro) (2015 Remastered Version)
DR13 0.00 dB -15.08 dB 3:48 09-Little Guitars (2015 Remastered Version)
DR12 -2.68 dB -17.64 dB 2:45 10-Big Bad Bill (Is Sweet William Now) (2015 Remastered Version)
DR12 -0.94 dB -15.49 dB 3:20 11-The Full Bug (2015 Remastered Version)
DR11 -2.67 dB -17.78 dB 1:07 12-Happy Trails (2015 Remastered Version)
––––––––––––––––––––––––––––––––––––––––

Number of tracks: 12
Official DR value: DR12

Samplerate: 192000 Hz
Channels: 2
Bits per sample: 24
Bitrate: 5077 kbps
Codec: FLAC
================================================================================



Van Halen - The Collection (2015) [Official Digital Download 24 bit/192kHz]

Van Halen - MCMLXXXIV (1984/2015)
FLAC (tracks) 24 bit/192 kHz | Time - 33:08 minutes | 1,33 GB
FLAC (tracks) 24 bit/96 kHz | Time - 33:08 minutes | 769 MB
Studio Master, Official Digital Download | Artwork: Front cover

1984 remains one of Van Halen’s most popular works. It has sold over twelve million copies in the United States alone and reached #2 on the Billboard 200, only behind Michael Jackson’s Thriller. The album spent five weeks at the #2 spot and includes the Top Twenty hits, “I’ll Wait,” “Jump” and “Panama.” 1984 is the last full-length recording to feature the band’s iconic frontman David Lee Roth. It is included on Rolling Stone’s “100 Greatest Albums of the 80s”.

Tracklist:

01 - 1984
02 - Jump
03 - Panama
04 - Top Jimmy
05 - Drop Dead Legs
06 - Hot For Teacher
07 - I'll Wait
08 - Girl Gone Bad
09 - House Of Pain

Analyzed: Van Halen / 1984
––––––––––––––––––––––––––––––––––––––––

DR Peak RMS Duration Track
––––––––––––––––––––––––––––––––––––––––
DR12 -7.92 dB -23.16 dB 1:08 01-1984 (2015 Remastered Version)
DR14 -0.43 dB -16.23 dB 4:02 02-Jump (2015 Remastered Version)
DR13 -0.74 dB -15.92 dB 3:30 03-Panama (2015 Remastered Version)
DR13 -0.01 dB -15.93 dB 3:00 04-Top Jimmy (2015 Remastered Version)
DR12 0.00 dB -14.24 dB 4:14 05-Drop Dead Legs (2015 Remastered Version)
DR13 0.00 dB -15.03 dB 4:43 06-Hot For Teacher (2015 Remastered Version)
DR13 -0.01 dB -15.33 dB 4:40 07-I'll Wait (2015 Remastered Version)
DR13 -0.01 dB -14.91 dB 4:34 08-Girl Gone Bad (2015 Remastered Version)
DR12 -0.01 dB -14.33 dB 3:18 09-House Of Pain (2015 Remastered Version)
––––––––––––––––––––––––––––––––––––––––

Number of tracks: 9
Official DR value: DR13

Samplerate: 192000 Hz
Channels: 2
Bits per sample: 24
Bitrate: 5543 kbps
Codec: FLAC
================================================================================



Van Halen - The Collection (2015) [Official Digital Download 24 bit/192kHz]

Van Halen - Best Of: Volume I (1996/2015)
FLAC (tracks) 16 bit/44 kHz | Time - 11:23 minutes | 2,81 GB (with Tokyo Dome)
Studio Master, Official Digital Download | Artwork: Front cover

Excerption from the Best Of compilation… Two "new" songs only.

Tracklist:

01 - Can't Get This Stuff No More
02 - Me Wise Magic

Analyzed: Van Halen / Best Of - Volume I
––––––––––––––––––––––––––––––––––––––––

DR Peak RMS Duration Track
––––––––––––––––––––––––––––––––––––––––
DR8 -0.10 dB -10.75 dB 5:15 01-Can't Get This Stuff No More (2015 Remastered Version)
DR7 -0.56 dB -10.30 dB 6:08 02-Me Wise Magic (2015 Remastered Version)
––––––––––––––––––––––––––––––––––––––––

Number of tracks: 2
Official DR value: DR8

Samplerate: 44100 Hz
Channels: 2
Bits per sample: 16
Bitrate: 1003 kbps
Codec: FLAC
================================================================================



Van Halen - The Collection (2015) [Official Digital Download 24 bit/192kHz]

Van Halen - Tokyo Dome: Live In Concert (2015)
FLAC (tracks) 24 bit/96 kHz | Time - 120:04 minutes | 2,81 GB (with Best Of)
Studio Master, Official Digital Download | Artwork: Front cover

Van Halen didn't release a live album until 1993, by which time David Lee Roth had long since left the group. Tokyo Dome in Concert arrived some 22 years later, by which time Diamond Dave had returned to the fold and Michael Anthony had left, replaced by Eddie Van Halen's son Wolfgang. In other words, this isn't the dream double-live set of the fans' dreams – the original lineup captured in their 1977-1984 peak – but rather a surprisingly muscular reunion. If Roth's voice isn't what it used to be, he still radiates charm – he's always happy to be there, so you're happy to be there with him – and having Van Halen tackle the group's classics underscores what a different band this incarnation actually is. Michael Anthony happily hugged the root note of a chord, anchoring the wild flourishes of Eddie and Alex, but Wolfgang follows his father and uncle into the breach, slapping and bouncing notes with maniacal energy. What this version lacks in muscle it makes up in dexterity, a shift that's not quite as subtle as it reads. All this activity turns Tokyo Dome in Concert into a marathon taken at the speed of a sprint – no wonder David Lee Roth often seems breathless!

Tracklist:

01 - Unchained
02 - Runnin' With The Devil
03 - She's The Woman
04 - I'm The One
05 - Tattoo
06 - Everybody Wants Some!!
07 - Somebody Get Me A Doctor
08 - China Town
09 - Hear About It Later
10 - (Oh) Pretty Woman
11 - Drum Struck
12 - You Really Got Me
13 - Dance The Night Away
14 - I'll Wait
15 - And The Cradle Will Rock…
16 - Hot For Teacher
17 - Women In Love…
18 - Romeo Delight
19 - Mean Street
20 - Beautiful Girls
21 - Ice Cream Man
22 - Panama
23 - Eruption
24 - Ain't Talkin' 'Bout Love
25 - Jump

Analyzed: Van Halen / Tokyo Dome: Live in Concert
––––––––––––––––––––––––––––––––––––––––

DR Peak RMS Duration Track
––––––––––––––––––––––––––––––––––––––––
DR7 -0.20 dB -7.93 dB 4:57 01-Unchained (Live at the Tokyo Dome June 21, 2013)
DR8 -0.15 dB -9.03 dB 3:45 02-Runnin' With The Devil (Live at the Tokyo Dome June 21, 2013)
DR9 0.00 dB -9.71 dB 2:58 03-She's The Woman (Live at the Tokyo Dome June 21, 2013)
DR8 -0.18 dB -9.47 dB 4:12 04-I'm The One (Live at the Tokyo Dome June 21, 2013)
DR8 -0.20 dB -8.76 dB 4:32 05-Tattoo (Live at the Tokyo Dome June 21, 2013)
DR8 -0.18 dB -10.47 dB 8:30 06-Everybody Wants Some!! (Live at the Tokyo Dome June 21, 2013)
DR8 -0.20 dB -9.15 dB 3:23 07-Somebody Get Me A Doctor (Live at the Tokyo Dome June 21, 2013)
DR7 -0.19 dB -8.60 dB 3:23 08-China Town (Live at the Tokyo Dome June 21, 2013)
DR7 -0.22 dB -8.37 dB 5:12 09-Hear About It Later (Live at the Tokyo Dome June 21, 2013)
DR7 -0.22 dB -8.11 dB 3:09 10-(Oh) Pretty Woman (Live at the Tokyo Dome June 21, 2013)
DR7 -0.22 dB -10.74 dB 2:55 11-Drum Struck (Live at the Tokyo Dome June 21, 2013)
DR7 -0.21 dB -9.82 dB 5:34 12-You Really Got Me (Live at the Tokyo Dome June 21, 2013)
DR7 -0.20 dB -9.10 dB 4:27 13-Dance The Night Away (Live at the Tokyo Dome June 21, 2013)
DR7 -0.20 dB -8.08 dB 5:04 14-I'll Wait (Live at the Tokyo Dome June 21, 2013)
DR7 -0.17 dB -8.23 dB 3:44 15-And The Cradle Will Rock… (Live at the Tokyo Dome June 21, 2013)
DR7 -0.18 dB -8.59 dB 5:44 16-Hot For Teacher (Live at the Tokyo Dome June 21, 2013)
DR8 -0.22 dB -9.45 dB 4:25 17-Women In Love… (Live at the Tokyo Dome June 21, 2013)
DR7 -0.22 dB -9.19 dB 5:48 18-Romeo Delight (Live at the Tokyo Dome June 21, 2013)
DR7 -0.19 dB -9.11 dB 5:11 19-Mean Street (Live at the Tokyo Dome June 21, 2013)
DR8 -0.19 dB -8.66 dB 3:36 20-Beautiful Girls (Live at the Tokyo Dome June 21, 2013)
DR7 -0.07 dB -10.58 dB 5:10 21-Ice Cream Man (Live at the Tokyo Dome June 21, 2013)
DR7 -0.20 dB -8.93 dB 4:21 22-Panama (Live at the Tokyo Dome June 21, 2013)
DR8 -0.23 dB -11.00 dB 8:08 23-Eruption (Live at the Tokyo Dome June 21, 2013)
DR7 -0.19 dB -8.44 dB 6:07 24-Ain't Talkin' 'Bout Love (Live at the Tokyo Dome June 21, 2013)
DR7 -0.13 dB -8.28 dB 5:48 25-Jump (Live at the Tokyo Dome June 21, 2013)
––––––––––––––––––––––––––––––––––––––––

Number of tracks: 25
Official DR value: DR7

Samplerate: 96000 Hz
Channels: 2
Bits per sample: 24
Bitrate: 3153 kbps
Codec: FLAC
================================================================================


Thanks to the Original customer!