Van Morrison - Keep Me Singing (2016) [Official Digital Download]

Posted By: HDV
Van Morrison - Keep Me Singing (2016) [Official Digital Download]

Van Morrison - Keep Me Singing (2016)
FLAC (tracks) 24-bit/48 kHz | Time - 56:41 minutes | 692 MB
Studio Master, Official Digital Download | Artwork: Front cover

"Keep Me Singing" is the 36th studio album by Northern Irish singer-songwriter Van Morrison. The album received generally positive reviews from music critics. At Metacritic, which assigns a normalised rating out of 100 to reviews from mainstream critics, the album received an average score of 74 based on 10 reviews, which indicates "generally favorable reviews".

Van Morrison does exactly what he wants, when he wants, and continually mines the past no matter the cost. It's been four years since the Celtic soulman issued a collection of original studio material (Born to Sing: No Plan B), but given the music, it could have been yesterday. Morrison has no interest in innovation, he's already done that. The pace here is (mostly) laid-back, the music drenched in jazz, R&B, blues, and classy pop. He revels throughout in an elegant slow burn; his lyric themes are bittersweet, melancholic, filled with emotional and symbolic memory; his longing for the previous prevalent. The first line on album-opener "Let It Rhyme" is: "Throw another coin in the wishing well/Tell everybody to go to hell…" atop skeins of country and R&B as he reveals his recalcitrance. Celtic folk burrows underneath soul in the title track, as a trio of female backing singers, swelling B-3, and a snare undulate beneath his lyrics: "Keep me singing, a new beginning/waiting for my change to come…." A breezy harmonica solo adds a twist, but this tune reflects (musically as well as poetically) the protagonist in "Tore Down à la Rimbaud" from 1985's A Sense of Wonder, who is far down the road, holding stubbornly to a hope he knows (like his countryman Samuel Beckett) will elude him. "Out in the Cold Again" is one of Morrison's finest torch songs in a decade. His delivery hovers just above a small string section and Fiachra Trench's Errol Garner-esque piano. "The Pen Is Mightier Than the Sword" weaves blues-drenched electric guitar and organ exchanges in a midtempo steamy groove appended to excellent backing vocals from Dana Masters and Lance Ellington. The lone cover is a gospelized-blues version of Don Robey's and Alfred Braggs' ballad "Share Your Love with Me." (It was originally recorded by Bobby "Blue" Bland in 1963, and made immortal by Aretha Franklin in 1970. Morrison's version lies closer to the original in spirit.) The singer revisits his time in the San Francisco Bay area for "In Tiburon," where a circular Celtic jazz melody flows under his poetic lines as they name check various signposts in memory, invoking Beat poets, musicians, and locales offeringa tale of a woman gazing out a window listening to music. He invokes this mysterious person over and again with the lines "Now we need each other to lean on…." A muted trumpet solo is misty, bittersweet, and tender. "Look Beyond the Hill" is a fingerpopping jazz tune with ghost traces of a "Moondance" musical feel, but without the magic hook. The outlier is "Going Down to Bangor," a raw blues, that directly references the early Chicago sound. Morrison offers his best blues shout and wails on harmonica. Keep Me Singing closes with "Caledonia Swing," an instrumental where skiffle, punchy R&B, and bluebeat ska rhythm (yes, really) come together in trademark style. Morrison delivers each of these songs with attentiveness; the material is consistently presented with finesse. Nothing further is required.


01 - Let It Rhyme
02 - Every Time I See A River
03 - Keep Me Singing
04 - Out In The Cold Again
05 - Memory Lane
06 - The Pen Is Mightier Than The Sword
07 - Holy Guardian Angel
08 - Share Your Love With Me
09 - In Tiburon
10 - Look Beyond The Hill
11 - Going Down To Bangor
12 - Too Late
13 - Caledonia Swing

Analyzed: Van Morrison / Keep Me Singing

DR Peak RMS Duration Track
DR8 0.00 dB -9.39 dB 3:53 01-Let It Rhyme
DR11 0.00 dB -12.90 dB 4:43 02-Every Time I See A River
DR9 0.00 dB -11.31 dB 3:40 03-Keep Me Singing
DR12 0.00 dB -14.85 dB 7:07 04-Out In The Cold Again
DR10 0.00 dB -12.63 dB 4:09 05-Memory Lane
DR9 0.00 dB -11.58 dB 3:51 06-The Pen Is Mightier Than The Sword
DR7 0.00 dB -10.46 dB 6:19 07-Holy Guardian Angel
DR8 0.00 dB -10.39 dB 4:11 08-Share Your Love With Me
DR10 0.00 dB -11.74 dB 5:18 09-In Tiburon
DR9 0.00 dB -11.51 dB 2:28 10-Look Beyond The Hill
DR8 0.00 dB -9.07 dB 5:18 11-Going Down To Bangor
DR9 0.00 dB -10.11 dB 2:49 12-Too Late
DR8 0.00 dB -9.57 dB 2:54 13-Caledonia Swing

Number of tracks: 13
Official DR value: DR9

Samplerate: 48000 Hz
Channels: 2
Bits per sample: 24
Bitrate: 1683 kbps
Codec: FLAC

Thanks to the Original customer!