Van Morrison - A Night In San Francisco (1994/2008/2015) [Official Digital Download 24-bit/96kHz]

Posted By: HDV
Van Morrison - A Night In San Francisco (1994/2008/2015) [Official Digital Download 24-bit/96kHz]

Van Morrison - A Night In San Francisco (1994/2008/2015)
FLAC (tracks) 24-bit/96 kHz | Time - 151:25 minutes | 3,32 GB
Studio Master, Official Digital Download | Artwork: Front cover

A Night in San Francisco is a live album by Northern Irish singer-songwriter Van Morrison, released in 1994. Guest artists were Candy Dulfer, John Lee Hooker, Junior Wells and Jimmy Witherspoon as well as Morrison's daughter, Shana Morrison. James Hunter and Brian Kennedy helped out with the vocals and Georgie Fame was also present. The June 2008 reissued and remastered version of the album contains a live take of the Morrison song "Cleaning Windows". "I'll Take Care of You/It's a Man's Man's Man's World" from this album was listed as one of the standout tracks from the six album reissue.

Van Morrison's third commercially released live album takes a show format that frequently spotlights the backup band, led by organist/singer Georgie Fame and featuring singers Brian Kennedy and James Hunter, as well as saxophonist Candy Dulfer and blues singers John Lee Hooker, Junior Wells, and Jimmy Witherspoon. Even Morrison's daughter Shana comes on to sing his "Beautiful Vision." The material is not limited to Morrison compositions, either. In fact, it isn't so much that Morrison and company cover a variety of rock, pop, blues, R&B, and jazz standards as that many pieces are medleys that contain complete songs and quotes from others, rather in the way that a jazz soloist will suddenly throw in a few bars of a familiar tune. Those who want to see Morrison as an esoteric singer/songwriter rather than a showman may find this album a mongrel creation, but it's undeniably lively, and that's the first requirement of a live album.

Tracklist:

CD1 #01 - Did Ye Get Healed?
CD1 #02 - Medley: It's All In The Game / Sitting In The Park / Make It Real One More Time
CD1 #03 - I've Been Working
CD1 #04 - I Forgot That Love Existed
CD1 #05 - Medley: Vanlose Stairway / Trans-Euro Train / Fool For You
CD1 #06 - You Make Me Feel So Free
CD1 #07 - Beautiful Vision
CD1 #08 - Medley: See Me Through / Soldier Of Fortune / Thank You (Falettinme Be Mice Elf Agin)
CD1 #09 - Ain't That Loving You Baby?
CD1 #10 - Medley: They Call It Stormy Monday / Have You Ever Loved A Woman? / No Rollin' Blues
CD1 #11 - Medley: Help Me / Green Onions
CD1 #12 - Good Morning Little School Girl
CD1 #13 - Tupelo Honey
CD1 #14 - Medley: Moondance / My Funny Valentine

CD2 #01 - Jumpin' With Symphony Sid
CD2 #02 - It Fills You Up
CD2 #03 - Medley: I'll Take Care Of You / It's A Man's, Man's, Man's World
CD2 #04 - Medley: Lonely Avenue / Be-Bop-A-Lula / 4 O'Clock In The Morning (Try For Sleep) / Family Affair / You Give Me Nothing But The Blues / When Will I Become A Man? / Sooner Or Later / Down The Line
CD2 #05 - Medley: So Quiet In Here / That's Where It's At
CD2 #06 - Medley: In The Garden / You Send Me / Real Real Gone / Allegheny
CD2 #07 - Have I Told You Lately That I Love You?
CD2 #08 - Medley: Shakin' All Over / Gloria
CD2 #09 - Medley: Cleaning Windows / The Street Only Knew Your Name

Analyzed: Van Morrison / A Night In San Francisco (Disc 1)
––––––––––––––––––––––––––––––––––––––––

DR Peak RMS Duration Track
––––––––––––––––––––––––––––––––––––––––
DR9 -1.00 dB -12.30 dB 4:19 01-Did Ye Get Healed?
DR9 -1.00 dB -12.06 dB 4:20 02-Medley: It's All In The Game / Sitting In The Park / Make It Real One More Time
DR9 -1.00 dB -12.11 dB 3:24 03-I've Been Working
DR9 -1.01 dB -13.81 dB 6:17 04-I Forgot That Love Existed
DR9 -1.00 dB -12.26 dB 6:55 05-Medley: Vanlose Stairway / Trans-Euro Train / Fool For You
DR9 -1.00 dB -11.23 dB 3:14 06-You Make Me Feel So Free
DR10 -1.01 dB -13.61 dB 4:11 07-Beautiful Vision
DR9 -1.00 dB -13.71 dB 10:18 08-Medley: See Me Through / Soldier Of Fortune / Thank You (Falettinme Be Mice Elf Agin)
DR9 -1.01 dB -12.24 dB 4:44 09-Ain't That Loving You Baby?
DR10 -1.00 dB -13.59 dB 6:09 10-Medley: They Call It Stormy Monday / Have You Ever Loved A Woman? / No Rollin' Blues
DR10 -1.00 dB -13.22 dB 6:09 11-Medley: Help Me / Green Onions
DR10 -1.00 dB -13.02 dB 3:31 12-Good Morning Little School Girl
DR9 -1.00 dB -12.12 dB 4:02 13-Tupelo Honey
DR9 -1.00 dB -12.50 dB 9:10 14-Medley: Moondance / My Funny Valentine
––––––––––––––––––––––––––––––––––––––––

Number of tracks: 14
Official DR value: DR9

Samplerate: 96000 Hz
Channels: 2
Bits per sample: 24
Bitrate: 3039 kbps
Codec: FLAC
================================================================================

Analyzed: Van Morrison / A Night In San Francisco (Disc 2)
––––––––––––––––––––––––––––––––––––––––

DR Peak RMS Duration Track
––––––––––––––––––––––––––––––––––––––––
DR10 -1.00 dB -12.85 dB 4:49 01-Jumpin' With Symphony Sid
DR10 -1.00 dB -12.70 dB 4:43 02-It Fills You Up
DR9 -1.00 dB -13.77 dB 16:23 03-Medley: I'll Take Care Of You / It's A Man's, Man's, Man's World
DR10 -1.00 dB -14.12 dB 14:51 04-Medley: Lonely Avenue / Be-Bop-A-Lula / 4 O'Clock In The Morning (Try For Sleep) / Family Affair / You Give Me Nothing But The Blues / When Will I Become A Man? / Sooner Or Later / Down The Line
DR10 -1.00 dB -14.59 dB 5:00 05-Medley: So Quiet In Here / That's Where It's At
DR8 -1.01 dB -13.61 dB 9:42 06-Medley: In The Garden / You Send Me / Real Real Gone / Allegheny
DR8 -1.00 dB -11.83 dB 3:51 07-Have I Told You Lately That I Love You?
DR10 -1.01 dB -13.52 dB 11:37 08-Medley: Shakin' All Over / Gloria
DR9 -1.00 dB -12.15 dB 3:46 09-Medley: Cleaning Windows / The Street Only Knew Your Name
––––––––––––––––––––––––––––––––––––––––

Number of tracks: 9
Official DR value: DR9

Samplerate: 96000 Hz
Channels: 2
Bits per sample: 24
Bitrate: 2975 kbps
Codec: FLAC
================================================================================


Thanks to the Original customer!

More of 'Van Morrison' in Hi-Res