Vasco Rossi - SACD Reissue Series (2016) PS3 ISO + Hi-Res FLAC

Posted By: HDAtall
Vasco Rossi - SACD Reissue Series (2016) PS3 ISO + Hi-Res FLAC

Vasco Rossi - SACD Reissue Series (2016) [5x SACD]
PS3 Rip | SACD ISO | DST64 2.0 > 1-bit/2.8224 MHz | 190:19 minutes | Scans included | 3,52 GB
or FLAC(converted with foobar2000 to tracks) 24bit/88,2 kHz | Full Scans included | 4,22 GB

Doubtless Italy's biggest rock star, Vasco Rossi is not only the most successful Italian singer since the 1980s, but he is also the most realistic and consistent incarnation of the triad of sex, drugs (or alcohol), and rock & roll. Ignored – when not hated – by the critics but adored by his fans, Rossi was the first Italian artist to tour the stadiums (at the end of the 1980s), reaching the apex of a popularity that has survived uncountable trend changes and at least two full decades. His songs, heavy riff-based rockers and romantic power ballads, and his lyrics made him a sort of a prophet for a generation of disappointed youngsters who found in them an escape, a door to an easier, reckless life: the "Vita Spericolata" described in one of his most famous hits.


Vasco Rossi - SACD Reissue Series (2016) PS3 ISO + Hi-Res FLAC

Vasco Rossi - Vado Al Massimo (1982) [Reissue 2016]
PS3 Rip | SACD ISO | DST64 2.0 > 1-bit/2.8224 MHz | 36:52 minutes | Scans included | 702 MB
or FLAC(converted with foobar2000 to tracks) 24bit/88,2 kHz | Full Scans included | 840 MB

Tracklist:

01. Sono Ancora In Coma
02. Cosa Ti Fai
03. Ogni Volta
04. Vado Al Massimo
05. Credi Davvero
06. Amore!?!
07. Canzone
08. Splendida Giornata
09. La Noia

foobar2000 1.3.14 / Dynamic Range Meter 1.1.1

––––––––––––––––––––––––––––––––––––––––
Analyzed: VASCO ROSSI / VADO AL MASSIMO
––––––––––––––––––––––––––––––––––––––––

DR Peak RMS Duration Track
––––––––––––––––––––––––––––––––––––––––
DR7 -7.13 dB -16.35 dB 2:57 01-SONO ANCORA IN COMA
DR8 -7.08 dB -18.33 dB 2:46 02-COSA TI FAI
DR9 -7.07 dB -19.07 dB 4:14 03-OGNI VOLTA
DR11 -7.00 dB -20.34 dB 4:03 04-VADO AL MASSIMO
DR9 -7.09 dB -18.31 dB 4:50 05-CREDI DAVVERO
DR10 -7.07 dB -19.17 dB 4:42 06-AMORE…AIUTO
DR10 -7.44 dB -19.38 dB 4:15 07-CANZONE
DR10 -7.15 dB -19.16 dB 4:39 08-SPLENDIDA GIORNATA
DR11 -7.32 dB -21.17 dB 4:25 09-LA NOIA
––––––––––––––––––––––––––––––––––––––––

Number of tracks: 9
Official DR value: DR10

Samplerate: 2822400 Hz / PCM Samplerate: 88200 Hz
Channels: 2
Bits per sample: 1
Bitrate: 5645 kbps
Codec: DST64


Uncompressed SACD ISO size > 658 MB


Vasco Rossi - SACD Reissue Series (2016) PS3 ISO + Hi-Res FLAC

Vasco Rossi - Bollicine (1983) [Reissue 2016]
PS3 Rip | SACD ISO | DST64 2.0 > 1-bit/2.8224 MHz | 33:44 minutes | Scans included | 632 MB
or FLAC(converted with foobar2000 to tracks) 24bit/88,2 kHz | Full Scans included | 761 MB

Tracklist:

01. Bollicine
02. Una Canzone Per Te
03. Portatemi Dio
04. Vita Spericolata
05. Deviazioni
06. Giocala
07. Ultimo Domicilio Conosciuto
08. Mi piaci perché

foobar2000 1.3.14 / Dynamic Range Meter 1.1.1

––––––––––––––––––––––––––––––––––––––––
Analyzed: VASCO ROSSI / BOLLICINE
––––––––––––––––––––––––––––––––––––––––

DR Peak RMS Duration Track
––––––––––––––––––––––––––––––––––––––––
DR8 -7.10 dB -18.51 dB 5:38 01-BOLLICINE
DR9 -7.99 dB -20.14 dB 3:13 02-UNA CANZONE PER TE
DR9 -8.10 dB -19.03 dB 3:19 03-PORTATEMI DIO
DR7 -8.08 dB -18.97 dB 4:44 04-VITA SPERICOLATA
DR8 -7.65 dB -18.25 dB 4:36 05-DEVIAZIONI
DR8 -7.44 dB -17.89 dB 5:24 06-GIOCALA
DR7 -7.25 dB -16.82 dB 3:30 07-ULTIMO DOMICILIO CONOSCIUTO
DR9 -7.43 dB -18.51 dB 3:20 08-MI PIACI PERCHE'
––––––––––––––––––––––––––––––––––––––––

Number of tracks: 8
Official DR value: DR8

Samplerate: 2822400 Hz / PCM Samplerate: 88200 Hz
Channels: 2
Bits per sample: 1
Bitrate: 5645 kbps
Codec: DST64


Uncompressed SACD ISO size > 593 MB


Vasco Rossi - SACD Reissue Series (2016) PS3 ISO + Hi-Res FLAC

Vasco Rossi - Va Bene, Va Bene Così (1984) [Reissue 2016]
PS3 Rip | SACD ISO | DST64 2.0 > 1-bit/2.8224 MHz | 42:29 minutes | Scans included | 795 MB
or FLAC(converted with foobar2000 to tracks) 24bit/88,2 kHz | Full Scans included | 949 MB

Tracklist:

01. Va Bene, Va Bene Così
02. Colpa D'Alfredo
03. Deviazioni
04. Fegato, Fegato Spappolato
05. Vita Spericolata
06. Ogni Volta
07. Albachiara
08. Bollicine
09. Siamo Solo Noi

foobar2000 1.3.14 / Dynamic Range Meter 1.1.1

––––––––––––––––––––––––––––––––––––––––
Analyzed: VASCO ROSSI / VA BENE, VA BENE COSI'
––––––––––––––––––––––––––––––––––––––––

DR Peak RMS Duration Track
––––––––––––––––––––––––––––––––––––––––
DR10 -7.06 dB -20.73 dB 5:01 01-VA BENE, VA BENE COSI'
DR9 -7.22 dB -19.31 dB 5:04 02-COLPA D'ALFREDO
DR9 -7.19 dB -18.27 dB 1:37 03-DEVIAZIONI
DR9 -7.22 dB -18.03 dB 3:12 04-FEGATO, FEGATO SPAPPOLATO
DR9 -7.22 dB -18.81 dB 5:32 05-VITA SPERICOLATA
DR9 -7.45 dB -19.34 dB 5:01 06-OGNI VOLTA
DR10 -7.37 dB -19.91 dB 4:36 07-ALBACHIARA
DR9 -7.27 dB -18.61 dB 5:55 08-BOLLICINE
DR7 -7.11 dB -18.21 dB 6:31 09-SIAMO SOLO NOI
––––––––––––––––––––––––––––––––––––––––

Number of tracks: 9
Official DR value: DR9

Samplerate: 2822400 Hz / PCM Samplerate: 88200 Hz
Channels: 2
Bits per sample: 1
Bitrate: 5645 kbps
Codec: DST64


Uncompressed SACD ISO size > 743 MB


Vasco Rossi - SACD Reissue Series (2016) PS3 ISO + Hi-Res FLAC

Vasco Rossi - Cosa Succede In Città (1985) [Reissue 2016]
PS3 Rip | SACD ISO | DST64 2.0 > 1-bit/2.8224 MHz | 37:39 minutes | Scans included | 720 MB
or FLAC(converted with foobar2000 to tracks) 24bit/88,2 kHz | Full Scans included | 868 MB

Tracklist:

01. Cosa C'è
02. Domani Sì, Adesso No
03. Cosa Succede In Città
04. Toffee
05. Ti Taglio La Gola
06. Una Nuova Canzone Per Lei
07. T'Immagini
08. Bolle Di Sapone
09. Dormi, Dormi

foobar2000 1.3.14 / Dynamic Range Meter 1.1.1

––––––––––––––––––––––––––––––––––––––––
Analyzed: VASCO ROSSI / COSA SUCCEDE IN CITTA'
––––––––––––––––––––––––––––––––––––––––

DR Peak RMS Duration Track
––––––––––––––––––––––––––––––––––––––––
DR8 -7.09 dB -17.59 dB 4:57 01-COSA C'E'
DR8 -7.05 dB -16.75 dB 4:27 02-DOMANI SI, ADESSO NO
DR8 -6.93 dB -17.07 dB 4:02 03-COSA SUCCEDE IN CITTA'
DR8 -7.25 dB -19.29 dB 5:14 04-TOFFEE
DR7 -6.80 dB -17.40 dB 3:50 05-TI TAGLIO LA GOLA
DR8 -7.12 dB -17.30 dB 3:41 06-UNA NUOVA CANZONE PER LEI
DR9 -7.25 dB -17.77 dB 3:58 07-T'IMMAGINI
DR8 -6.90 dB -17.37 dB 3:48 08-BOLLE DI SAPONE
DR8 -6.98 dB -19.07 dB 3:41 09-DORMI, DORMI
––––––––––––––––––––––––––––––––––––––––

Number of tracks: 9
Official DR value: DR8

Samplerate: 2822400 Hz / PCM Samplerate: 88200 Hz
Channels: 2
Bits per sample: 1
Bitrate: 5645 kbps
Codec: DST64


Uncompressed SACD ISO size > 677 MB


Vasco Rossi - SACD Reissue Series (2016) PS3 ISO + Hi-Res FLAC

Vasco Rossi - C'è chi dice no (1987) [Reissue 2016]
PS3 Rip | SACD ISO | DST64 2.0 > 1-bit/2.8224 MHz | 39:36 minutes | Scans included | 755 MB
or FLAC(converted with foobar2000 to tracks) 24bit/88,2 kHz | Full Scans included | 908 MB

Tracklist:

01. Vivere Una Favola
02. C'è Chi Dice No
03. Ridere Di Te
04. Blasco Rossi
05. Brava Giulia
06. Ciao
07. Non Mi Va
08. Lunedì

foobar2000 1.3.14 / Dynamic Range Meter 1.1.1

––––––––––––––––––––––––––––––––––––––––
Analyzed: VASCO ROSSI / C'E' CHI DICE NO
––––––––––––––––––––––––––––––––––––––––

DR Peak RMS Duration Track
––––––––––––––––––––––––––––––––––––––––
DR8 -7.23 dB -18.90 dB 5:28 01-VIVERE UNA FAVOLA
DR8 -7.14 dB -17.41 dB 4:33 02-C'E' CHI DICE NO
DR9 -7.30 dB -19.46 dB 5:35 03-RIDERE DI TE
DR7 -6.99 dB -16.54 dB 4:57 04-BLASCO ROSSI
DR8 -7.12 dB -17.44 dB 5:02 05-BRAVA GIULIA
DR7 -7.16 dB -17.29 dB 5:19 06-CIAO
DR8 -7.83 dB -18.10 dB 4:34 07-NON MI VA
DR8 -7.26 dB -17.92 dB 4:09 08-…LUNEDI'
––––––––––––––––––––––––––––––––––––––––

Number of tracks: 8
Official DR value: DR8

Samplerate: 2822400 Hz / PCM Samplerate: 88200 Hz
Channels: 2
Bits per sample: 1
Bitrate: 5645 kbps
Codec: DST64


Uncompressed SACD ISO size > 709 MB
Thanks to PS³SACD!
>