Wayne Shorter - Super Nova (1969/2014) [Official Digital Download 24-bit/192kHz]

Posted By: HDV
Wayne Shorter - Super Nova (1969/2014) [Official Digital Download 24-bit/192kHz]

Wayne Shorter - Super Nova (1969/2014)
FLAC (tracks) 24-bit/192 kHz | Time - 37:53 minutes | 1,42 GB
Studio Master, Official Digital Download | Artwork: Front cover

"Super Nova" is the twelfth album by Wayne Shorter, recorded in 1969 and released on the Blue Note label. The album features five originals by Shorter and an arrangement of "Dindi" by Antônio Carlos Jobim. "Water Babies", "Capricorn" and "Sweet Pea" were originally recorded in a more traditional jazz setting in 1967 during the sessions with the Second Miles Davis Quintet that would be released in 1976 on the album "Water Babies". Chick Corea appears on drums rather than his typical role as a keyboardist.

Super Nova is an important transitional album for tenor saxophonist Wayne Shorter. Doubling on soprano (which he had recently begun playing), Shorter interprets five of his originals (including "Water Babies," which had been recorded previously by Miles Davis) and Antonio Carlos Jobim's "Dindi." He definitely used a forward-looking group of sidemen, because his "backup band" includes guitarists John McLaughlin and Sonny Sharrock, Walter Booker (normally a bassist) on classical guitar for "Dindi," bassist Miroslav Vitous, both Jack DeJohnette and Chick Corea (!) on drums, and percussionist Airto; Maria Booker takes a vocal on the touching version of "Dindi." The influence of Miles Davis' early fusion period is felt throughout the music, but there is nothing derivative about the often-surprising results. As with Wayne Shorter's best albums, this set rewards repeated listenings.

Tracklist:

01 - Super Nova
02 - Sweet Pea
03 - Dindi
04 - Water Babies
05 - Capricorn
06 - More Than Human

Produced by Alfred Lion.
Recorded on August 29 ("1,2,4,5") and September 2 ("3 & 6"), 1969 at A&R Studios, NYC.

Musicians:
Wayne Shorter – soprano saxophone
John McLaughlin – acoustic and electric guitar on "1,2,4,5"
Sonny Sharrock – electric guitar
Miroslav Vitouš – bass
Chick Corea – drums, vibes
Jack DeJohnette – drums, kalimba
Airto Moreira – percussion
Walter Booker – acoustic guitar on "3"
Maria Booker – vocals on "3"
Niels Jakobsen – claves

Analyzed: Wayne Shorter / Super Nova
––––––––––––––––––––––––––––––––––––––––

DR Peak RMS Duration Track
––––––––––––––––––––––––––––––––––––––––
DR12 -0.82 dB -15.92 dB 4:49 01-Super Nova
DR12 -4.53 dB -20.35 dB 4:35 02-Sweet Pea
DR13 -2.25 dB -19.71 dB 9:35 03-Dindi
DR11 -2.75 dB -16.61 dB 4:53 04-Water Babies
DR10 -0.98 dB -15.02 dB 7:47 05-Capricorn
DR11 -2.16 dB -16.17 dB 6:13 06-More Than Human
––––––––––––––––––––––––––––––––––––––––

Number of tracks: 6
Official DR value: DR11

Samplerate: 192000 Hz
Channels: 2
Bits per sample: 24
Bitrate: 5174 kbps
Codec: FLAC
================================================================================


Thanks to the Original customer!

More of 'Wayne Shorter' in Hi-Res