Tags
Language
Tags

Weather Report - Black Market (1976) [Japan 2001] PS3 ISO + DSD64 Hi-Res FLAC

Posted By: HDAtall
Weather Report - Black Market (1976) [Japan 2001] PS3 ISO + DSD64 Hi-Res FLAC

Weather Report - Black Market (1976) [Japan 2001]
PS3 Rip | SACD ISO | DSD64 2.0 > 1-bit/2.8224 MHz | 36:58 minutes | Scans included | 1,1 GB
or DSD64 2.0 (from SACD-ISO to Tracks.dsf) > 1-bit/2.8224 MHz | Full Scans included | 988 MB
or FLAC (carefully converted & encoded to tracks) 24bit/96 kHz | Full Scans included | 863 MB

Black Market is an instrumental jazz fusion album released by Weather Report in 1976. This album was produced by Joe Zawinul and Wayne Shorter. It was recorded in December 1975 and released in April 1976 through Columbia Records. This is Weather Report's seventh overall album and the first with the bass player Jaco Pastorius who features on two tracks. The back cover photo shows Pastorius, Chester Thompson and Alex Acuña with the band, although Alphonso Johnson played on more than half of the record. The album draws heavily from African influences and its style could be described as "world fusion". The second Track, "Cannon Ball" is tribute to Zawinul's then recently deceased former band leader, saxophonist Julian "Cannonball" Adderley.

The first two Weather Report albums to feature Jaco (and two of their very best) were combined on to a single cassette, containing the smash hit "Birdland". If cassette was your format, this was a great way to pick up two great albums, but it is now out of print.

Tracklist:

01. Black Market
02. Cannon Ball
03. Gibraltar
04. Elegant People
05. Three Clowns
06. Barbary Coast
07. Herandnu

Personnel
Joe Zawinul - Piano, Keyboards, Synthesizer
Wayne Shorter - Saxophone, Strings
Jaco Pastorius - Bass
Alphonso Johnson - Bass
Chester Thompson - Drums
Narada Michael Walden - Drums
Alejandro "Alex" Acuña - Percussion, Congas
Don Elias - Percussion, Congas

Produced by Joe Zawinul and Wayne Shorter.
Recorded in December 1975 and first released in April 1976 through Columbia Records.
Sony Music Japan # SRGS 4576

foobar2000 1.6.7 / Dynamic Range Meter 1.1.1

––––––––––––––––––––––––––––––––––––––––
Analyzed: Weather Report / Black Market
––––––––––––––––––––––––––––––––––––––––

DR Peak RMS Duration Track
––––––––––––––––––––––––––––––––––––––––
DR12 -5.67 dB -22.60 dB 6:28 01-Black Market
DR13 -4.62 dB -24.62 dB 4:37 02-Cannon Ball
DR14 -3.70 dB -22.80 dB 7:46 03-Gibraltar
DR14 -6.05 dB -23.23 dB 5:04 04-Elegant People
DR13 -8.15 dB -27.29 dB 3:20 05-Three Clowns
DR15 -5.75 dB -24.91 dB 3:09 06-Barbary Coast
DR12 -4.28 dB -21.53 dB 6:36 07-Herandnu
––––––––––––––––––––––––––––––––––––––––

Number of tracks: 7
Official DR value: DR13

Samplerate: 2822400 Hz / PCM Samplerate: 88200 Hz
Channels: 2
Bits per sample: 24
Bitrate: 5645 kbps
Codec: DSD64


Thanks to PS³SACD!
Uncompressed SACD ISO size > 1,49 GB
>