Tags
Language
Tags

Weather Report - Mysterious Traveller (1974) [Reissue 2002] MCH PS3 ISO + DSD64 + Hi-Res FLAC

Posted By: HDAtall
Weather Report - Mysterious Traveller (1974) [Reissue 2002] MCH PS3 ISO + DSD64 + Hi-Res FLAC

Weather Report - Mysterious Traveller (1974) [Reissue 2002]
PS3 Rip | SACD ISO | DST64 2.0 & 5.1 > 1-bit/2.8224 MHz | 47:55 minutes | Scans included | 3,12 GB
or DSD64 2.0 Stereo (from SACD-ISO to Tracks.dsf) > 1-bit/2.8224 MHz | 48:05 min | Scans | 1,3 GB
or FLAC 2.0 (carefully converted & encoded to tracks) 24bit/96 kHz | 48:05 min | Scans | 1,1 GB
Features Stereo and Multichannel Surround Sound

Weather Report started out as a jazz equivalent of what the rock world in 1970 was calling a "supergroup". But unlike most of the rock supergroups, this one not only kept going for a good 15 years, it more than lived up to its billing, practically defining the state of the jazz-rock art throughout almost all of its run. Mysterious Traveller is the band's fourth studio album.

Weather Report's fourth recording finds Wayne Shorter (on soprano and tenor) taking a lesser role as Joe Zawinul begins to really dominate the group's sound. Most selections also include bassist Alphonso Johnson and drummer Ishmael Wilburn although the personnel shifts from track to track. "Nubian Sundance" adds several vocalists while "Blackthorn Rose" is a Shorter-Zawinul duet. Overall the music is pretty stimulating and sometimes adventurous; high-quality fusion from 1974.

Tracklist:

01. Nubian Sundance
02. American Tango
03. Cucumber Slumber
04. Mysterious Traveller
05. Blackthorn Rose
06. Scarlet Woman
07. Jungle Book

Personnel
Josef Zawinul - Electric and acoustic piano, synthesizer, guitar, kalimba, organ, tamboura, clay drum, tack piano, melodica
Wayne Shorter - Soprano and tenor saxophone, tack piano
Miroslav Vitouš - Upright bass (track 2 only)
Alphonso Johnson - Bass guitar
Ishmael Wilburn - Drums
Skip Hadden - Drums (tracks 1 and 4 only)
Dom Um Romão - Percussion, drums

Recorded in November 1973 - March 1974 at Devonshire Sound, Los Angeles, CA.

foobar2000 1.6.7 / Dynamic Range Meter 1.1.1

––––––––––––––––––––––––––––––––––––––––
Analyzed: WEATHER REPORT / MYSTERIOUS TRAVELLER
––––––––––––––––––––––––––––––––––––––––

DR Peak RMS Duration Track
––––––––––––––––––––––––––––––––––––––––
DR11 -5.72 dB -20.88 dB 10:40 01-Nubian Sundance
DR12 -5.74 dB -24.80 dB 3:38 02-American Tango
DR13 -6.20 dB -24.00 dB 8:24 03-Cucumber Slumber
DR13 -5.84 dB -24.65 dB 7:21 04-Mysterious Traveller
DR13 -7.08 dB -30.27 dB 4:58 05-Blackthorn Rose
DR13 -5.86 dB -26.80 dB 5:43 06-Scarlet Woman
DR14 -5.76 dB -27.12 dB 7:11 07-Jungle Book
––––––––––––––––––––––––––––––––––––––––

Number of tracks: 7
Official DR value: DR13

Samplerate: 2822400 Hz / PCM Samplerate: 176400 Hz
Channels: 6
Bits per sample: 1
Bitrate: 16934 kbps
Codec: DST64
================================================================================

––––––––––––––––––––––––––––––––––––––––
Analyzed: WEATHER REPORT / MYSTERIOUS TRAVELLER
––––––––––––––––––––––––––––––––––––––––

DR Peak RMS Duration Track
––––––––––––––––––––––––––––––––––––––––
DR12 -3.93 dB -19.23 dB 10:39 01-Nubian Sundance
DR13 -3.39 dB -21.92 dB 3:39 02-American Tango
DR13 -3.05 dB -19.89 dB 8:21 03-Cucumber Slumber
DR14 -2.72 dB -21.37 dB 7:20 04-Mysterious Traveller
DR14 -6.38 dB -25.82 dB 4:58 05-Blackthorn Rose
DR12 -3.54 dB -24.08 dB 5:45 06-Scarlet Woman
DR14 -7.09 dB -26.91 dB 7:23 07-Jungle Book
––––––––––––––––––––––––––––––––––––––––

Number of tracks: 7
Official DR value: DR13

Samplerate: 2822400 Hz / PCM Samplerate: 176400 Hz
Channels: 2
Bits per sample: 1
Bitrate: 5645 kbps
Codec: DST64


Thanks to bambasm!
Uncompressed SACD ISO size > 2,9 GB
>