Andrew Lloyd Webber - The Phantom of the Opera (Original Motion Picture Soundtrack) [2004] {2.0 & 5.1} PS3+FLAC {RE-UP}

Posted By: HDAtall
Andrew Lloyd Webber - The Phantom of the Opera (Original Motion Picture Soundtrack) [2004] {2.0 & 5.1} PS3+FLAC {RE-UP}

Andrew Lloyd Webber - The Phantom of the Opera [OST] (2004)
PS3 Rip | SACD ISO | DST64 2.0 & 5.1 > 1-bit/2.8224 MHz | 63:30 minutes | Scans included | 3,75 GB
or FLAC 2.0 Stereo (converted with foobar2000 to tracks) 24bit/88,2 kHz | Scans included | 1,25 GB

For better or worse, Andrew Lloyd Webber's adaptation of Gaston Leroux's gothic horror/romance novel has done for stage musicals what Spielberg's Jaws did for fish stories, with worldwide sales of its original cast album approaching 25 million. While director Joel Schumacher's film turns on his typically ambitious visual verve, its new film soundtrack recording has been paradoxically focused in scope, yet beefed up dynamically via the brawny presence of a hundred piece orchestra and The London Boys Choir. This single disc version showcases all of Phantom's key songs (a deluxe, double-disc edition is also available), with Gerard Butler imparting a welcome, youthful sensuality to his Phantom, making a fine foil for Emmy Rossum's ever-conflicted Christine. Original show orchestrator David Cullen has fashioned compelling new contemporary arrangements to frame Webber's songs – which now conclude with the lilting, upbeat new ballad he wrote for the film, "Learn to Be Lonely," sung by Minnie Driver.

Andrew Lloyd Webber's musical adaptation of Gaston Leroux's 1911 gothic mystery novel The Phantom of the Opera proved to be at least the composer's second most successful project, behind only Cats, and with the potential to outdo even that blockbuster. The musical opened in London in October 1986 and in New York in January 1988, and both productions were still running (along with many others around the world) when the film version finally premiered in December 2004. Because the same starring performers, Michael Crawford and Sarah Brightman, moved from the West End to Broadway, there was no original Broadway cast recording, the original London cast album serving to represent both stagings. In line with the success of the show, that album, a double-disc set, was also a hit, selling four million copies in the U.S. alone by 1996, with another four million copies of a single-disc highlights version as well. Although there was also an original Canadian cast album (not to mention foreign language versions from such countries as Japan and Austria), the movie soundtrack represents the first major re-recording of the score since 1986. Again, Lloyd Webber has opted to issue it in two versions, but this time, the 63-minute single CD is considered the standard release, with the double-disc set billed as the Special Edition version. Even fans of the show and the film may want to stick with the shorter one, however. The two-hour special edition is that rarity, a soundtrack album that actually contains the complete, unedited film soundtrack, including dialogue, incidental background music, and sound effects. This, of course, makes it something of an odd listening experience, especially because there doesn't seem to be any reason why some dialogue is spoken and some is rendered in singsong recitative. Lloyd Webber has written some extra background music here and there, as well as one new song, and that's an oddity, too. Minnie Driver, who plays the prima donna Carlotta, had her singing dubbed by Margaret Preece, but she turns up at the end and, over the closing credits, sings "Learn to Be Lonely," an irrelevant and musically out-of-place song clearly composed just to have a new tune that would be Academy Award eligible. The film's other singers are adequate but no competition to Crawford, Brightman, and their colleagues, and the initial recording remains the one to buy.

Tracklist:

01. Overture
02. Think of Me
03. Angel of Music
04. The Mirror
05. The Phantom of the Opera
06. The Music of the Night
07. Prima Donna
08. All I Ask of You
09. All I Ask of You (Reprise)
10. Masquerade
11. Wishing You Were Somehow Here Again
12. The Point of No Return
13. Down Once More / Track Down This Murderer
14. Learn to be Lonely

foobar2000 1.2.1 / Dynamic Range Meter 1.1.1

––––––––––––––––––––––––––––––––––––––––
Analyzed: Andrew Lloyd Webber / The Phantom of the Opera (Oriinal Motion Picture Soundtrack)
––––––––––––––––––––––––––––––––––––––––

DR Peak RMS Duration Track
––––––––––––––––––––––––––––––––––––––––
DR12 -6.40 dB -25.61 dB 2:46 01-Overture
DR13 -9.27 dB -31.90 dB 3:41 02-Think of Me
DR13 -18.33 dB -39.76 dB 2:44 03-Angel of Music
DR14 -11.17 dB -33.28 dB 2:00 04-The Mirror
DR12 -6.19 dB -25.07 dB 3:36 05-The Phantom of the Opera
DR15 -6.57 dB -31.21 dB 5:40 06-The Music of the Night
DR13 -9.14 dB -31.40 dB 3:30 07-Prima Donna
DR14 -7.00 dB -32.73 dB 4:54 08-All I Ask of You
DR12 -6.42 dB -27.05 dB 2:17 09-All I Ask of You (Reprise)
DR14 -6.13 dB -27.02 dB 5:31 10-Masquerade
DR14 -12.49 dB -36.54 dB 3:43 11-Wishing You Were Somehow Here Again
DR16 -6.20 dB -29.98 dB 8:01 12-The Point of No Return
DR17 -6.18 dB -31.37 dB 12:45 13-Down Once More / Track Down This Murderer
DR12 -12.37 dB -33.88 dB 2:22 14-Learn to be Lonely
––––––––––––––––––––––––––––––––––––––––

Number of tracks: 14
Official DR value: DR14

Samplerate: 2822400 Hz / PCM Samplerate: 88200 Hz
Channels: 6
Bits per sample: 24
Bitrate: 16934 kbps
Codec: DST64
================================================================================

––––––––––––––––––––––––––––––––––––––––
Analyzed: Andrew Lloyd Webber / The Phantom of the Opera (Original Motion Picture Soundtrack)
––––––––––––––––––––––––––––––––––––––––

DR Peak RMS Duration Track
––––––––––––––––––––––––––––––––––––––––
DR10 -7.38 dB -19.96 dB 2:46 01-Overture
DR11 -7.97 dB -26.37 dB 3:41 02-Think of Me
DR11 -14.80 dB -31.36 dB 2:44 03-Angel of Music
DR11 -10.12 dB -26.29 dB 2:00 04-The Mirror
DR10 -6.05 dB -20.10 dB 3:36 05-The Phantom of the Opera
DR12 -8.15 dB -25.49 dB 5:40 06-The Music of the Night
DR12 -7.99 dB -24.55 dB 3:30 07-Prima Donna
DR11 -8.95 dB -26.67 dB 4:54 08-All I Ask of You
DR9 -7.81 dB -23.01 dB 2:17 09-All I Ask of You (Reprise)
DR11 -7.20 dB -22.18 dB 5:31 10-Masquerade
DR12 -10.85 dB -29.52 dB 3:43 11-Wishing You Were Somehow Here Again
DR12 -6.94 dB -24.52 dB 8:01 12-The Point of No Return
DR13 -7.14 dB -26.20 dB 12:45 13-Down Once More / Track Down This Murderer
DR11 -10.07 dB -25.73 dB 2:22 14-Learn to be Lonely
––––––––––––––––––––––––––––––––––––––––

Number of tracks: 14
Official DR value: DR11

Samplerate: 2822400 Hz / PCM Samplerate: 88200 Hz
Channels: 2
Bits per sample: 24
Bitrate: 5645 kbps
Codec: DST64


Thanks to Alembic86!
Uncompressed SACD ISO size > 3,44 GB
>
SACD ISO 1
SACD ISO 2
SACD ISO 3
SACD ISO 4

FLAC 1 (Stereo)
FLAC 2 (Stereo)
>