Wilco - A.M. (1995/2013) [Official Digital Download 24/88]

Posted By: HDV
Wilco - A.M. (1995/2013) [Official Digital Download 24/88]

Wilco - A.M. (1995/2013)
FLAC (tracks) 24-bit/88,2 kHz | Time - 44:41 minutes | 938 MB
Studio Master, Official Digital Download | Artwork: Front cover

A.M. is Wilco's debut album, released on March 28, 1995. Wilco formed out of the breakup of Uncle Tupelo, an alternative country band that many of Wilco's members had been in previously. The album was a first step into Wilco's increasingly-adventurous musical territory. Critics modestly liked the album, citing the influence of Gram Parsons and Neil Young.

Not surprisingly, Wilco's debut album, A.M., isn't a great departure from Uncle Tupelo. Wilco's music rocks in a more conventional way than Uncle Tupelo, rolling along with a loping beat that swings more than it rocks. "Casino Queen" is a shambling, bluesy honky tonk number that's boozier than anything Tupelo recorded, which is indicative of the major difference between the bands. Wilco wears its heart on its sleeve, writing songs that fit into the conventions of country-rock, not ones that rework the rules. "Box Full of Letters" doesn't deviate from the standard mid-tempo country-rock number, yet it's done so well it doesn't matter. Still, the opener, "I Must Be High" – a clever love song that subtly tweaks both lyrical and musical clichés, as well as featuring a killer melody – casts a shadow over A.M., offering the knowledge that Wilco can subvert the genre without losing its accessibility. In its light, all the very good songs that follow seem somewhat disappointing.


01 - I Must Be High
02 - Casino Queen
03 - Box Full Of Letters
04 - Shouldn't Be Ashamed
05 - Pick Up The Change
06 - I Thought I Held You
07 - That's Not The Issue
08 - It's Just That Simple
09 - Should've Been In Love
10 - Passenger Side
11 - Dash 7
12 - Blue Eyed Soul
13 - Too Far Apart

Analyzed: Wilco / A.M.

DR Peak RMS Duration Track
DR7 -0.10 dB -8.53 dB 2:59 01-I Must Be High
DR8 -0.10 dB -8.97 dB 2:45 02-Casino Queen
DR8 -0.10 dB -9.31 dB 3:06 03-Box Full Of Letters
DR9 -0.10 dB -10.82 dB 3:30 04-Shouldn't Be Ashamed
DR8 -0.10 dB -9.01 dB 2:56 05-Pick Up The Change
DR8 -0.10 dB -10.21 dB 3:49 06-I Thought I Held You
DR9 -0.10 dB -9.87 dB 3:21 07-That's Not The Issue
DR9 -0.10 dB -10.98 dB 3:46 08-It's Just That Simple
DR10 -0.10 dB -10.92 dB 3:37 09-Should've Been In Love
DR9 -0.10 dB -9.47 dB 3:34 10-Passenger Side
DR10 -0.34 dB -13.32 dB 3:30 11-Dash 7
DR9 -0.10 dB -10.75 dB 4:05 12-Blue Eyed Soul
DR9 -0.10 dB -11.19 dB 3:44 13-Too Far Apart

Number of tracks: 13
Official DR value: DR9

Samplerate: 88200 Hz
Channels: 2
Bits per sample: 24
Bitrate: 2829 kbps
Codec: FLAC

Thanks to the Original customer!