Wilhelm Furtwangler, Berliner Philharmoniker - The Radio Recordings 1939-1945 (2019) [22x SACD Set] SACD ISO + Hi-Res FLAC

Posted By: HDAtall
Wilhelm Furtwangler, Berliner Philharmoniker - The Radio Recordings 1939-1945 (2019) [22x SACD Set] SACD ISO + Hi-Res FLAC

Wilhelm Furtwängler, Berliner Philharmoniker - The Radio Recordings 1939-1945 (2019) [22x SACD Set]
SACD Rip | SACD ISO | DSD64 2.0 > 1-bit/2.8224 MHz | 21:42:34 hours | Scans NOT included | ~ 36,45 GB
or FLAC 2.0 (converted with foobar2000 to tracks) 24bit/96 kHz | Front, Scans NOT included | ~ 27,8 GB

The radio recordings between 1939 and 1945 with the Berliner Philharmoniker and Wilhelm Furtwangler are among classical music's most compelling sound documents. Created at the peak of the collaboration between orchestra and conductor, Furtwangler's artist personality is conveyed more vividly than anywhere else. What can be heard is music in which inspiration and the expressive will know no bounds and in which, not least, the existential experience of the Second World War reverberates. For the first time, the Berliner Philharmoniker are releasing a complete edition of these recordings.

At the end of World War 2 the Red Army occupied Nazi Berlin, and in the Haus des Rundfunks on Masurenallee a musically literate Soviet officer called Konstantin Adzhemov took from the sound archives around 1,500 classical music tapes that were sent back to Moscow. In 1956 some of these recordings started to appear as LP releases on Melodiya, the Soviet State record label. Klaus Lang, music editor at Sender Freies Berlin (SFB), had talks with the Moscow Radio department about the missing tapes and subsequently some copies of the Furtwängler recordings were returned, a number with reverberation added. Deutsche Grammophon issued some of these recordings on 10 CDs. In 1990, following the fall of Communism and German unification, SFB requested the repatriation of the original tapes. As a gesture of goodwill, a considerable number of the RRG tapes were returned up to 1991 but some were absent; this is still the current position.

This collection The Radio Recordings 1939–1945 is intended to allow the listener to experience the Berliner Philharmoniker in collaboration with Wilhelm Furtwängler, the conductor the players revered so much. Owing to the period these were produced they are sometimes described as the “war recordings” and are greatly prized, being regarded as the peak of Furtwängler’s conducting career. In addition, these historical performances were recorded with the added pressure and threat of working in Nazi Germany with great emphasis placed on music performance from the Third Reich leadership. Not surprisingly, the majority of the recordings focus on Austro/German repertoire of the 19th century, with symphonies and solo concertos by Beethoven, Schubert, Weber, Schumann, Wagner, Brahms, Bruckner and Richard Strauss plus some Handel, Gluck and Mozart. Sibelius and Ravel are also represented, as are a few of then-contemporary composers, Heinz Schumann, Pepping and a work from Furtwängler himself. There is some duplication, notably Mozart’s Symphony No. 39 and Beethoven’s Symphonies no’s. 4 and 5. Given the difficulties of the time the incomplete concerts aren’t too much of a problem; however, a couple of the works are incomplete. When the old Philharmonie was destroyed by bombing on 30th January 1944 the orchestra moved around a number of other Berlin buildings suitable for holding concerts and included here are recordings from Beethoven-Saal, Staatsoper Unter den Linden and Admiralspalast, also Haus des Rundfunks and a workers concert at AEG turbine factory.

The majority of the Furtwängler recordings on this edition were produced under sound engineer Dr. Friedrich Schnapp who in October 1939 succeeded Kurt Rasch. Schnapp went on to supervise Furtwängler’s radio broadcasts until the end of the war. Commencing in the 1940/41 season the concerts were no longer transmitted live but recorded earlier, for Sunday radio broadcast. A procedure sometimes followed was to choose the best of the three concerts in the series and also in rehearsal which were chosen for broadcast. Some of the original shellac discs and tapes were probably lost in a fire whilst in storage by the RRG and this is probably the reason why some of the concerts presented here are incomplete. Usually, from the original raw concert recordings, a new tape was made and edited then copied onto transmission tapes which were then used for broadcast. For this edition sound engineer Nikolaus Löwe remastered the original RRG tapes scored at RRB which hadn’t been worked on since 1991. Using a retrofitted Telefunken M19 tape machine Löwe digitized them in high resolution at 24bit/96kHz. A small number of the tapes seem to have lessened in quality since 1991 but the sound engineers have stated that “the vast majority showed a distinct improvement in the direct digital copy”.



Tracklist:

Disc 1 #01. Wilhelm Furtwängler - Symphonic Concerto: 1. Schwer
Disc 1 #02. Wilhelm Furtwängler - Symphonic Concerto: 2. Adagio solenne
Disc 1 #03. Wilhelm Furtwängler - Symphonic Concerto: 3. Allegro - Allegretto moderato

Disc 2 #01. G.F. Händel - Concerto grosso, Op. 6 No. 5: 1. (Maestoso) - Allegro
Disc 2 #02. G.F. Händel - Concerto grosso, Op. 6 No. 5: 2. Presto
Disc 2 #03. G.F. Händel - Concerto grosso, Op. 6 No. 5: 3. Largo
Disc 2 #04. G.F. Händel - Concerto grosso, Op. 6 No. 5: 4. Menuett
Disc 2 #05. G.F. Händel - Concerto grosso, Op. 6 No. 5: 5. Allegro
Disc 2 #06. Beethoven - Symphony No. 5: 1. Allegro con brio
Disc 2 #07. Beethoven - Symphony No. 5: 2. Andante con moto
Disc 2 #08. Beethoven - Symphony No. 5: 3. Allegro -
Disc 2 #09. Beethoven - Symphony No. 5: 4. Allegro - Presto
Disc 2 #10. Richard Strauss - Verführung op. 33 no. 1
Disc 2 #11. Richard Strauss - Waldseligkeit op. 49 no. 1
Disc 2 #12. Richard Strauss - Liebeshymnus op. 32 no. 3
Disc 2 #13. Richard Strauss - Winterliebe op. 48 no. 5
Disc 2 #14. Richard Strauss - Don Juan

Disc 3 #01. Richard Wagner - Die Meistersinger von Nürnberg: Prelude
Disc 3 #02. Richard Wagner - Piano Concerto: 1. Allegro affetuoso
Disc 3 #03. Richard Wagner - Piano Concerto: 2. Intermezzo. Andantino grazioso -
Disc 3 #04. Richard Wagner - Piano Concerto: 3. Allegro vivace
Disc 3 #05. Beethoven - Symphony No. 7: 1. Poco sostenuto - Vivace
Disc 3 #06. Beethoven - Symphony No. 7: 2. Allegretto
Disc 3 #07. Beethoven - Symphony No. 7: 3. Presto - Trio I und II. Assai meno presto
Disc 3 #08. Beethoven - Symphony No. 7: 4. Allegro con brio

Disc 4 #01. Beethoven - Symphony No. 9: 1. Allegro ma non troppo, un poco maestoso
Disc 4 #02. Beethoven - Symphony No. 9: 2. Molto vivace
Disc 4 #03. Beethoven - Symphony No. 9: 3. Adagio molto e cantabile
Disc 4 #04. Beethoven - Symphony No. 9: 4. Presto

Disc 5 #01. Christoph Willibald Gluck - Alceste
Disc 5 #02. Robert Schumann - Cello Concerto: 1. Nicht zu schnell -
Disc 5 #03. Robert Schumann - Cello Concerto: 2. Langsam - Etwas lebhafter - Schneller
Disc 5 #04. Robert Schumann - Cello Concerto: 3. Sehr lebhaft - Schneller

Disc 6 #01. Anton Bruckner - Symphony No. 5: 1. Introduction. Adagio - Allegro
Disc 6 #02. Anton Bruckner - Symphony No. 5: 2. Adagio. Sehr langsam
Disc 6 #03. Anton Bruckner - Symphony No. 5: 3. Scherzo. Molto vivace (Schnell) - Trio. Im gleichen Tempo
Disc 6 #04. Anton Bruckner - Symphony No. 5: 4. Finale. Adagio - Allegro moderato

Disc 7 #01. Johannes Brahms - Piano Concerto No. 2: 1. Allegro non troppo
Disc 7 #02. Johannes Brahms - Piano Concerto No. 2: 2. Allegro appassionato
Disc 7 #03. Johannes Brahms - Piano Concerto No. 2: 3. Andante
Disc 7 #04. Johannes Brahms - Piano Concerto No. 2: 4. Allegretto grazioso
Disc 7 #05. Richard Wagner - Tristan und Isolde: Prelude to Act 1 and Liebestod

Disc 8 #01. Heinz Schubert - Hymnic Concerto: 1. Introitus
Disc 8 #02. Heinz Schubert - Hymnic Concerto: 2. Toccata (mit Inventionen)
Disc 8 #03. Heinz Schubert - Hymnic Concerto: 3. Passacaglia (Sanctus)
Disc 8 #04. Heinz Schubert - Hymnic Concerto: 4. Finale (Te deum)

Disc 9 #01. Franz Schubert - Symphony No. 8 "Die Große": 1. Andante - Allegro ma non troppo
Disc 9 #02. Franz Schubert - Symphony No. 8 "Die Große": 2. Andante con moto
Disc 9 #03. Franz Schubert - Symphony No. 8 "Die Große": 3. Scherzo. Allegro vivace - Trio
Disc 9 #04. Franz Schubert - Symphony No. 8 "Die Große": 4. Finale. Allegro vivace
Disc 9 #05. W.A. Mozart - Symphony No. 39: 1. Adagio - Allegro
Disc 9 #06. W.A. Mozart - Symphony No. 39: 2. Andante con moto
Disc 9 #07. W.A. Mozart - Symphony No. 39: 3. Menuetto. Allegretto - Trio
Disc 9 #08. W.A. Mozart - Symphony No. 39: 4. Finale. Allegro

Disc 10 #01. Jean Sibelius - En Saga
Disc 10 #02. Jean Sibelius - Violin Concerto: 1. Allegro moderato
Disc 10 #03. Jean Sibelius - Violin Concerto: 2. Adagio di molto
Disc 10 #04. Jean Sibelius - Violin Concerto: 3. Allegro ma non tanto

Disc 11 #01. Beethoven - Symphonie No. 4: 1. Adagio - Allegro vivace (without audience)
Disc 11 #02. Beethoven - Symphonie No. 4: 2. Adagio (without audience)
Disc 11 #03. Beethoven - Symphonie No. 4: 3. Allegro vivace (without audience)
Disc 11 #04. Beethoven - Symphonie No. 4: 4. Allegro ma non troppo (without audience)
Disc 11 #05. Beethoven - Symphonie No. 4: 1. Adagio - Allegro vivace (with audience)
Disc 11 #06. Beethoven - Symphonie No. 4: 2. Adagio (with audience)
Disc 11 #07. Beethoven - Symphonie No. 4: 3. Allegro vivace (with audience)
Disc 11 #08. Beethoven - Symphonie No. 4: 4. Allegro ma non troppo (with audience)

Disc 12 #01. Beethoven - Coriolan: Overture
Disc 12 #02. Beethoven - Symphony No. 5: 1. Allegro con brio
Disc 12 #03. Beethoven - Symphony No. 5: 2. Andante con moto
Disc 12 #04. Beethoven - Symphony No. 5: 3. Allegro -
Disc 12 #05. Beethoven - Symphony No. 5: 4. Allegro - Presto

Disc 13 #01. Ernst Pepping - Symphony No. 2: 1. Molto sostenuto
Disc 13 #02. Ernst Pepping - Symphony No. 2: 2. Tranquillo
Disc 13 #03. Ernst Pepping - Symphony No. 2: 3. Allegro spirituoso
Disc 13 #04. Ernst Pepping - Symphony No. 2: 4. Maestoso
Disc 13 #05. Beethoven - Piano Concerto No. 4: 1. Allegro moderato
Disc 13 #06. Beethoven - Piano Concerto No. 4: 2. Andante con moto
Disc 13 #07. Beethoven - Piano Concerto No. 4: 3. Rondo. Vivace - Presto

Disc 14 #01. Anton Bruckner - Symphony No. 6: 2. Adagio. Sehr feierlich
Disc 14 #02. Anton Bruckner - Symphony No. 6: 3. Scherzo. Nicht schnell - Trio. Langsam
Disc 14 #03. Anton Bruckner - Symphony No. 6: 4. Finale. Bewegt, doch nicht zu schnell
Disc 14 #04. Anton Bruckner - Cello Concerto: 2. Langsam - Etwas lebhafter - Schneller (Fragment)
Disc 14 #05. Anton Bruckner - Cello Concerto: 3. Sehr lebhaft - Schneller
Disc 14 #06. Richard Strauss - Till Eulenspiegels lustige Streiche

Disc 15 #01. Johannes Brahms - Variations on a Theme by Haydn: Thema. Chorale St. Antoni. Andante
Disc 15 #02. Johannes Brahms - Variations on a Theme by Haydn: Variation I. Poco più animato
Disc 15 #03. Johannes Brahms - Variations on a Theme by Haydn: Variation II. Più vivace
Disc 15 #04. Johannes Brahms - Variations on a Theme by Haydn: Variation III. Con moto
Disc 15 #05. Johannes Brahms - Variations on a Theme by Haydn: Variation IV. Andante con moto
Disc 15 #06. Johannes Brahms - Variations on a Theme by Haydn: Variation V. Vivace
Disc 15 #07. Johannes Brahms - Variations on a Theme by Haydn: Variation VI. Vivace
Disc 15 #08. Johannes Brahms - Variations on a Theme by Haydn: Variation VII. Grazioso
Disc 15 #09. Johannes Brahms - Variations on a Theme by Haydn: Variation VIII. Presto non troppo
Disc 15 #10. Johannes Brahms - Variations on a Theme by Haydn: Finale. Andante
Disc 15 #11. Johannes Brahms - Piano Concerto No. 2: 1. Allegro non troppo
Disc 15 #12. Johannes Brahms - Piano Concerto No. 2: 2. Allegro appassionato
Disc 15 #13. Johannes Brahms - Piano Concerto No. 2: 3. Andante
Disc 15 #14. Johannes Brahms - Piano Concerto No. 2: 4. Allegretto grazioso

Disc 16 #01. Johannes Brahms - Symphony No. 4: 1. Allegro non troppo
Disc 16 #02. Johannes Brahms - Symphony No. 4: 2. Andante moderato
Disc 16 #03. Johannes Brahms - Symphony No. 4: 3. Allegro giocoso - Poco meno presto - Tempo I
Disc 16 #04. Johannes Brahms - Symphony No. 4: 4. Allegro energico e passionato - Più allegro

Disc 17 #01. Beethoven - Violin Concerto: 1. Allegro ma non troppo
Disc 17 #02. Beethoven - Violin Concerto: 2. Larghetto
Disc 17 #03. Beethoven - Violin Concerto: 3. Rondo (Allegro)

Disc 18 #01. Richard Strauss - Symphonia domestica: Allegro
Disc 18 #02. Richard Strauss - Symphonia domestica: Scherzo
Disc 18 #03. Richard Strauss - Symphonia domestica: Adagio
Disc 18 #04. Richard Strauss - Symphonia domestica: Finale

Disc 19 #01. G.F. Händel - Concerto grosso, Op. 6 No. 10: 1. Overture
Disc 19 #02. G.F. Händel - Concerto grosso, Op. 6 No. 10: 2. Allegro
Disc 19 #03. G.F. Händel - Concerto grosso, Op. 6 No. 10: 3. Air (lento)
Disc 19 #04. G.F. Händel - Concerto grosso, Op. 6 No. 10: 5. Allegro
Disc 19 #05. G.F. Händel - Concerto grosso, Op. 6 No. 10: 6. Allegro moderato
Disc 19 #06. W.A. Mozart - Symphony No. 39: 1. Adagio - Allegro
Disc 19 #07. W.A. Mozart - Symphony No. 39: 2. Andante con moto
Disc 19 #08. W.A. Mozart - Symphony No. 39: 3. Menuetto
Disc 19 #09. W.A. Mozart - Symphony No. 39: 4. Allegro

Disc 20 #01. Carl Maria von Weber - Der Freischütz: Overture
Disc 20 #02. Maurice Ravel - Daphnis et Chloé, Suite No. 1: 2. Interlude
Disc 20 #03. Maurice Ravel - Daphnis et Chloé, Suite No. 1: 3. Danse guerrère
Disc 20 #04. Maurice Ravel - Daphnis et Chloé, Suite No. 2: 1. Lever du jour
Disc 20 #05. Maurice Ravel - Daphnis et Chloé, Suite No. 2: 2. Pantomime
Disc 20 #06. Maurice Ravel - Daphnis et Chloé, Suite No. 2: 3. Danse générale
Disc 20 #07. Beethoven - Symphony No. 6: 1. Allegro ma non troppo
Disc 20 #08. Beethoven - Symphony No. 6: 2. Andante molto mosso
Disc 20 #09. Beethoven - Symphony No. 6: 3. Allegro
Disc 20 #10. Beethoven - Symphony No. 6: 4. Allegro
Disc 20 #11. Beethoven - Symphony No. 6: 5. Allegretto

Disc 21 #01. Anton Bruckner - Symphony No. 9: Feierlich - Misterioso
Disc 21 #02. Anton Bruckner - Symphony No. 9: Scherzo. Bewegt, lebhaft-Trio: Schnell
Disc 21 #03. Anton Bruckner - Symphony No. 9: Adagio - Langsam feierlich

Disc 22 #01. Franz Schubert - Symphony No. 7 "Unvollendete": 1. Allegro moderato
Disc 22 #02. Franz Schubert - Symphony No. 7 "Unvollendete": 2. Andante con moto
Disc 22 #03. Johannes Brahms - Symphony No. 1: 4. Adagio - Più Andante - Allegro non troppo, ma con brio
Disc 22 #04. Bonus Track - Interview with Sound Engineer Friedrich Schnapp

Conductor – Wilhelm Furtwängler
Orchestra – Berliner Philharmoniker
+
Disc 1: Edwin Fischer - piano
Disc 2 Peter Anders - tenor vocals on tracks "10-13"
Disc 3: Walter Gieseking - piano on "2-4"
Disc 5: Tibor De Machula - cello on "2-4"
Disc 4: Elisabeth Höngen - alto vocals, Rudolf Watzke - bass vocals, Tilla Briem - soprano vocals, Peter Anders - tenor vocals, Bruno Kittelscher Chor
Disc 7: Edwin Fischer - piano on "1-4"
Disc 8: Fritz Heitmann - organ, Erna Berger - soprano vocals, Walther Ludwig - tenor vocals
Disc 13: Conrad Hansen - piano on "5-7"
Disc 14: Pierre Fournier - cello on "4-5"
Disc 15: Adrian Aeschbacher - piano on "11-14"
Disc 17: Erich Röhn - violin on "1-3"


Disc 1 - 19 January 1939 Alte Philharmonie, Berlin
Disc 2 - 13 September 1939 Haus des Rundfunks, Berlin; 15, 16, 17 February 1942 Alte Philharmonie, Berlin (Stauss)
Disc 3 - 26 February 1942 AEG-Fabrik, Berlin (Wagner); 1, 2, 3, March 1942 Alte Philharmonie, Berlin (Schumann, Beethoven)
Disc 4 - 22, 23, 24 March 1942 Alte Philharmonie, Berlin
Disc 5 - 25, 26, 27 October 1942 Alte Philharmonie, Berlin
Disc 6 - 25-28 Oct 1942
Disc 7 - 8, 9 November 1942 Alte Philharmonie, Berlin
Disc 8 - 6, 7, 8 December 1942 Alte Philharmonie, Berlin
Disc 9 - 6, 7, 8 December 1942 Alte Philharmonie, Berlin (Schubert); 1942 or 1943 Haus des Rundfunks, Berlin (Mozart)
Disc 10 - 7, 8, 9, 10 February 1943 Alte Philharmonie, Berlin
Disc 11 - 28, 29, 30 June 1943 Alte Philharmonie, Berlin
Disc 12 - 27-30 June 1943 Alte Philharmonie, Berlin
Disc 13 - 28, 29, 30 June 1943 Alte Philharmonie, Berlin
Disc 14 - 13, 14, 15, 16 November 1943 Alte Philharmonie, Berlin
Disc 15 - 12, 13, 14, 15 December 1943 Alte Philharmonie, Berlin
Disc 16 - 12-15 December 1943 Alte Philharmonie, Berlin
Disc 17 - 9, 10, 11, 12 January 1944 Alte Philharmonie, Berlin
DIsc 18 - 12 January 1944 Alte Philharmonie, Berlin
Disc 19 - 7, 8 February 1944 Staatsoper Unter den Linden, Berlin
Disc 20 - 20, 21 March 1944 Staatsoper Unter den Linden, Berlin
Disc 21 - 3 - 7 October 1944 Beethovensaal, Alte Philharmonie, Berlin
Disc 22 - 12 December 1944 Admiralspalast, Berlin (Schubert); 22, 23 January 1945 Admiralspalast, Berlin (Brahms)


foobar2000 1.4.8 / Dynamic Range Meter 1.1.1

––––––––––––––––––––––––––––––––––––––––
Analyzed: Berliner Philharmoniker, Wilhelm Furtwängler / The Radio Recordings 1939-1945 (Disc 1)
––––––––––––––––––––––––––––––––––––––––

DR Peak RMS Duration Track
––––––––––––––––––––––––––––––––––––––––
DR15 -6.66 dB -26.71 dB 32:02 01-Symphonic Concerto: 1. Schwer
DR15 -6.78 dB -27.76 dB 11:12 02-Symphonic Concerto: 2. Adagio solenne
DR15 -6.86 dB -26.93 dB 21:37 03-Symphonic Concerto: 3. Allegro - Allegretto moderato
––––––––––––––––––––––––––––––––––––––––

Number of tracks: 3
Official DR value: DR15

Samplerate: 2822400 Hz / PCM Samplerate: 176400 Hz
Channels: 2
Bits per sample: 1
Bitrate: 5645 kbps
Codec: DSD64
================================================================================

––––––––––––––––––––––––––––––––––––––––
Analyzed: Berliner Philharmoniker, Wilhelm Furtwängler / The Radio Recordings 1939-1945 (Disc 2)
––––––––––––––––––––––––––––––––––––––––

DR Peak RMS Duration Track
––––––––––––––––––––––––––––––––––––––––
DR15 -7.25 dB -25.98 dB 3:55 01-Concerto grosso, Op. 6 No. 5: 1. (Maestoso) - Allegro
DR15 -8.02 dB -30.14 dB 2:05 02-Concerto grosso, Op. 6 No. 5: 2. Presto
DR14 -11.36 dB -31.40 dB 3:05 03-Concerto grosso, Op. 6 No. 5: 3. Largo
DR15 -10.55 dB -31.89 dB 3:09 04-Concerto grosso, Op. 6 No. 5: 4. Menuett
DR15 -7.68 dB -27.45 dB 2:52 05-Concerto grosso, Op. 6 No. 5: 5. Allegro
DR15 -6.83 dB -26.01 dB 7:44 06-Symphony No. 5: 1. Allegro con brio
DR16 -7.04 dB -29.56 dB 10:08 07-Symphony No. 5: 2. Andante con moto
DR16 -7.07 dB -29.68 dB 5:30 08-Symphony No. 5: 3. Allegro -
DR14 -6.79 dB -24.51 dB 5:25 09-Symphony No. 5: 4. Allegro - Presto
DR12 -7.63 dB -24.34 dB 8:51 10-Verführung op. 33 no. 1
DR10 -8.71 dB -22.66 dB 2:51 11-Waldseligkeit op. 49 no. 1
DR10 -8.29 dB -22.17 dB 2:43 12-Liebeshymnus op. 32 no. 3
DR10 -7.93 dB -20.93 dB 1:31 13-Winterliebe op. 48 no. 5
DR11 -6.69 dB -21.95 dB 17:21 14-Don Juan
––––––––––––––––––––––––––––––––––––––––

Number of tracks: 14
Official DR value: DR13

Samplerate: 2822400 Hz / PCM Samplerate: 176400 Hz
Channels: 2
Bits per sample: 1
Bitrate: 5645 kbps
Codec: DSD64
================================================================================

––––––––––––––––––––––––––––––––––––––––
Analyzed: Berliner Philharmoniker, Wilhelm Furtwängler / The Radio Recordings 1939-1945 (Disc 3)
––––––––––––––––––––––––––––––––––––––––

DR Peak RMS Duration Track
––––––––––––––––––––––––––––––––––––––––
DR12 -9.46 dB -24.28 dB 9:17 01-Die Meistersinger von Nürnberg: Prelude
DR9 -7.38 dB -21.86 dB 14:57 02-Piano Concerto: 1. Allegro affetuoso
DR13 -9.29 dB -26.95 dB 5:50 03-Piano Concerto: 2. Intermezzo. Andantino grazioso -
DR11 -7.07 dB -22.40 dB 9:28 04-Piano Concerto: 3. Allegro vivace
DR11 -6.59 dB -22.91 dB 12:37 05-Symphony No. 7: 1. Poco sostenuto - Vivace
DR13 -6.88 dB -26.12 dB 9:49 06-Symphony No. 7: 2. Allegretto
DR13 -6.75 dB -25.23 dB 8:21 07-Symphony No. 7: 3. Presto - Trio I und II. Assai meno presto
DR12 -6.83 dB -22.60 dB 6:37 08-Symphony No. 7: 4. Allegro con brio
––––––––––––––––––––––––––––––––––––––––

Number of tracks: 8
Official DR value: DR12

Samplerate: 2822400 Hz / PCM Samplerate: 176400 Hz
Channels: 2
Bits per sample: 1
Bitrate: 5645 kbps
Codec: DSD64
================================================================================

––––––––––––––––––––––––––––––––––––––––
Analyzed: Berliner Philharmoniker, Wilhelm Furtwängler / The Radio Recordings 1939-1945 (Disc 4)
––––––––––––––––––––––––––––––––––––––––

DR Peak RMS Duration Track
––––––––––––––––––––––––––––––––––––––––
DR11 -7.03 dB -21.63 dB 17:36 01-Symphony No. 9: 1. Allegro ma non troppo, un poco maestoso
DR12 -7.48 dB -24.84 dB 11:23 02-Symphony No. 9: 2. Molto vivace
DR14 -6.96 dB -25.34 dB 20:38 03-Symphony No. 9: 3. Adagio molto e cantabile
DR11 -6.62 dB -21.11 dB 24:45 04-Symphony No. 9: 4. Presto
––––––––––––––––––––––––––––––––––––––––

Number of tracks: 4
Official DR value: DR12

Samplerate: 2822400 Hz / PCM Samplerate: 176400 Hz
Channels: 2
Bits per sample: 1
Bitrate: 5645 kbps
Codec: DSD64
================================================================================

––––––––––––––––––––––––––––––––––––––––
Analyzed: Berliner Philharmoniker, Wilhelm Furtwängler / The Radio Recordings 1939-1945 (Disc 5)
––––––––––––––––––––––––––––––––––––––––

DR Peak RMS Duration Track
––––––––––––––––––––––––––––––––––––––––
DR13 -9.05 dB -27.62 dB 8:19 01-Alceste
DR14 -7.56 dB -26.42 dB 10:54 02-Cello Concerto: 1. Nicht zu schnell -
DR13 -9.12 dB -27.58 dB 4:26 03-Cello Concerto: 2. Langsam - Etwas lebhafter - Schneller
DR13 -7.62 dB -25.36 dB 7:25 04-Cello Concerto: 3. Sehr lebhaft - Schneller
––––––––––––––––––––––––––––––––––––––––

Number of tracks: 4
Official DR value: DR13

Samplerate: 2822400 Hz / PCM Samplerate: 176400 Hz
Channels: 2
Bits per sample: 1
Bitrate: 5645 kbps
Codec: DSD64
================================================================================

––––––––––––––––––––––––––––––––––––––––
Analyzed: Berliner Philharmoniker, Wilhelm Furtwängler / The Radio Recordings 1939-1945 (Disc 6)
––––––––––––––––––––––––––––––––––––––––

DR Peak RMS Duration Track
––––––––––––––––––––––––––––––––––––––––
DR13 -8.22 dB -26.42 dB 19:10 01-Symphony No. 5: 1. Introduction. Adagio - Allegro
DR13 -8.16 dB -26.58 dB 15:32 02-Symphony No. 5: 2. Adagio. Sehr langsam
DR13 -6.63 dB -24.97 dB 12:00 03-Symphony No. 5: 3. Scherzo. Molto vivace (Schnell) - Trio. Im gleichen Tempo
DR13 -6.76 dB -24.51 dB 21:49 04-Symphony No. 5: 4. Finale. Adagio - Allegro moderato
––––––––––––––––––––––––––––––––––––––––

Number of tracks: 4
Official DR value: DR13

Samplerate: 2822400 Hz / PCM Samplerate: 176400 Hz
Channels: 2
Bits per sample: 1
Bitrate: 5645 kbps
Codec: DSD64
================================================================================

––––––––––––––––––––––––––––––––––––––––
Analyzed: Berliner Philharmoniker, Wilhelm Furtwängler / The Radio Recordings 1939-1945 (Disc 7)
––––––––––––––––––––––––––––––––––––––––

DR Peak RMS Duration Track
––––––––––––––––––––––––––––––––––––––––
DR8 -6.66 dB -18.51 dB 16:53 01-Piano Concerto No. 2: 1. Allegro non troppo
DR9 -6.44 dB -19.72 dB 8:35 02-Piano Concerto No. 2: 2. Allegro appassionato
DR12 -6.97 dB -24.20 dB 12:31 03-Piano Concerto No. 2: 3. Andante
DR9 -7.08 dB -20.26 dB 9:27 04-Piano Concerto No. 2: 4. Allegretto grazioso
DR10 -6.75 dB -21.14 dB 18:48 05-Tristan und Isolde: Prelude to Act 1 and Liebestod
––––––––––––––––––––––––––––––––––––––––

Number of tracks: 5
Official DR value: DR10

Samplerate: 2822400 Hz / PCM Samplerate: 176400 Hz
Channels: 2
Bits per sample: 1
Bitrate: 5645 kbps
Codec: DSD64
================================================================================

––––––––––––––––––––––––––––––––––––––––
Analyzed: Berliner Philharmoniker, Wilhelm Furtwängler / The Radio Recordings 1939-1945 (Disc 8)
––––––––––––––––––––––––––––––––––––––––

DR Peak RMS Duration Track
––––––––––––––––––––––––––––––––––––––––
DR10 -7.66 dB -21.42 dB 6:53 01-Hymnic Concerto: 1. Introitus
DR12 -9.67 dB -25.70 dB 15:06 02-Hymnic Concerto: 2. Toccata (mit Inventionen)
DR11 -8.68 dB -24.27 dB 8:19 03-Hymnic Concerto: 3. Passacaglia (Sanctus)
DR11 -8.75 dB -23.38 dB 8:04 04-Hymnic Concerto: 4. Finale (Te deum)
––––––––––––––––––––––––––––––––––––––––

Number of tracks: 4
Official DR value: DR11

Samplerate: 2822400 Hz / PCM Samplerate: 176400 Hz
Channels: 2
Bits per sample: 1
Bitrate: 5645 kbps
Codec: DSD64
================================================================================

––––––––––––––––––––––––––––––––––––––––
Analyzed: Berliner Philharmoniker, Wilhelm Furtwängler / The Radio Recordings 1939-1945 (Disc 9)
––––––––––––––––––––––––––––––––––––––––

DR Peak RMS Duration Track
––––––––––––––––––––––––––––––––––––––––
DR11 -6.82 dB -22.96 dB 13:44 01-Symphony No. 8 "Die Große": 1. Andante - Allegro ma non troppo
DR14 -6.91 dB -26.75 dB 16:58 02-Symphony No. 8 "Die Große": 2. Andante con moto
DR13 -6.87 dB -24.35 dB 9:36 03-Symphony No. 8 "Die Große": 3. Scherzo. Allegro vivace - Trio
DR12 -7.94 dB -24.46 dB 10:38 04-Symphony No. 8 "Die Große": 4. Finale. Allegro vivace
DR13 -6.63 dB -23.22 dB 9:11 05-Symphony No. 39: 1. Adagio - Allegro
DR11 -6.91 dB -23.93 dB 8:36 06-Symphony No. 39: 2. Andante con moto
DR14 -6.92 dB -24.97 dB 4:06 07-Symphony No. 39: 3. Menuetto. Allegretto - Trio
DR13 -6.81 dB -23.49 dB 3:50 08-Symphony No. 39: 4. Finale. Allegro
––––––––––––––––––––––––––––––––––––––––

Number of tracks: 8
Official DR value: DR13

Samplerate: 2822400 Hz / PCM Samplerate: 176400 Hz
Channels: 2
Bits per sample: 1
Bitrate: 5645 kbps
Codec: DSD64
================================================================================

––––––––––––––––––––––––––––––––––––––––
Analyzed: Berliner Philharmoniker, Wilhelm Furtwängler / The Radio Recordings 1939-1945 (Disc 10)
––––––––––––––––––––––––––––––––––––––––

DR Peak RMS Duration Track
––––––––––––––––––––––––––––––––––––––––
DR12 -7.93 dB -25.71 dB 20:24 01-En Saga
DR14 -6.88 dB -26.31 dB 15:31 02-Violin Concerto: 1. Allegro moderato
DR13 -9.18 dB -29.02 dB 8:12 03-Violin Concerto: 2. Adagio di molto
DR13 -9.30 dB -27.64 dB 7:38 04-Violin Concerto: 3. Allegro ma non tanto
––––––––––––––––––––––––––––––––––––––––

Number of tracks: 4
Official DR value: DR13

Samplerate: 2822400 Hz / PCM Samplerate: 176400 Hz
Channels: 2
Bits per sample: 1
Bitrate: 5645 kbps
Codec: DSD64
================================================================================

––––––––––––––––––––––––––––––––––––––––
Analyzed: Berliner Philharmoniker, Wilhelm Furtwängler / The Radio Recordings 1939-1945 (Disc 11)
––––––––––––––––––––––––––––––––––––––––

DR Peak RMS Duration Track
––––––––––––––––––––––––––––––––––––––––
DR12 -7.99 dB -26.01 dB 11:11 01-Symphonie No. 4: 1. Adagio - Allegro vivace (without audience)
DR16 -6.98 dB -28.98 dB 12:03 02-Symphonie No. 4: 2. Adagio (without audience)
DR13 -7.15 dB -26.42 dB 5:44 03-Symphonie No. 4: 3. Allegro vivace (without audience)
DR12 -6.62 dB -23.16 dB 6:59 04-Symphonie No. 4: 4. Allegro ma non troppo (without audience)
DR10 -6.51 dB -22.15 dB 11:22 05-Symphonie No. 4: 1. Adagio - Allegro vivace (with audience)
DR13 -8.53 dB -27.04 dB 12:03 06-Symphonie No. 4: 2. Adagio (with audience)
DR11 -6.71 dB -23.23 dB 5:40 07-Symphonie No. 4: 3. Allegro vivace (with audience)
DR11 -6.68 dB -21.61 dB 6:58 08-Symphonie No. 4: 4. Allegro ma non troppo (with audience)
––––––––––––––––––––––––––––––––––––––––

Number of tracks: 8
Official DR value: DR12

Samplerate: 2822400 Hz / PCM Samplerate: 176400 Hz
Channels: 2
Bits per sample: 1
Bitrate: 5645 kbps
Codec: DSD64
================================================================================

––––––––––––––––––––––––––––––––––––––––
Analyzed: Berliner Philharmoniker, Wilhelm Furtwängler / The Radio Recordings 1939-1945 (Disc 12)
––––––––––––––––––––––––––––––––––––––––

DR Peak RMS Duration Track
––––––––––––––––––––––––––––––––––––––––
DR11 -6.71 dB -22.74 dB 9:05 01-Coriolan: Overture
DR11 -7.15 dB -22.74 dB 8:10 02-Symphony No. 5: 1. Allegro con brio
DR12 -7.80 dB -25.86 dB 11:04 03-Symphony No. 5: 2. Andante con moto
DR12 -7.41 dB -26.19 dB 5:55 04-Symphony No. 5: 3. Allegro -
DR11 -7.13 dB -21.47 dB 8:07 05-Symphony No. 5: 4. Allegro - Presto
––––––––––––––––––––––––––––––––––––––––

Number of tracks: 5
Official DR value: DR11

Samplerate: 2822400 Hz / PCM Samplerate: 176400 Hz
Channels: 2
Bits per sample: 1
Bitrate: 5645 kbps
Codec: DSD64
================================================================================

––––––––––––––––––––––––––––––––––––––––
Analyzed: Berliner Philharmoniker, Wilhelm Furtwängler / The Radio Recordings 1939-1945 (Disc 13)
––––––––––––––––––––––––––––––––––––––––

DR Peak RMS Duration Track
––––––––––––––––––––––––––––––––––––––––
DR13 -7.00 dB -24.42 dB 12:58 01-Symphony No. 2: 1. Molto sostenuto
DR13 -7.21 dB -25.94 dB 10:29 02-Symphony No. 2: 2. Tranquillo
DR13 -7.68 dB -24.37 dB 7:48 03-Symphony No. 2: 3. Allegro spirituoso
DR11 -8.61 dB -23.60 dB 7:41 04-Symphony No. 2: 4. Maestoso
DR12 -7.98 dB -24.99 dB 19:05 05-Piano Concerto No. 4: 1. Allegro moderato
DR13 -7.37 dB -26.86 dB 6:03 06-Piano Concerto No. 4: 2. Andante con moto
DR12 -6.55 dB -23.18 dB 9:10 07-Piano Concerto No. 4: 3. Rondo. Vivace - Presto
––––––––––––––––––––––––––––––––––––––––

Number of tracks: 7
Official DR value: DR12

Samplerate: 2822400 Hz / PCM Samplerate: 176400 Hz
Channels: 2
Bits per sample: 1
Bitrate: 5645 kbps
Codec: DSD64
================================================================================

––––––––––––––––––––––––––––––––––––––––
Analyzed: Berliner Philharmoniker, Wilhelm Furtwängler / The Radio Recordings 1939-1945 (Disc 14)
––––––––––––––––––––––––––––––––––––––––

DR Peak RMS Duration Track
––––––––––––––––––––––––––––––––––––––––
DR12 -7.79 dB -27.32 dB 16:19 01-Symphony No. 6: 2. Adagio. Sehr feierlich
DR14 -9.57 dB -29.05 dB 7:40 02-Symphony No. 6: 3. Scherzo. Nicht schnell - Trio. Langsam
DR12 -9.69 dB -26.80 dB 12:20 03-Symphony No. 6: 4. Finale. Bewegt, doch nicht zu schnell
DR10 -15.18 dB -28.54 dB 0:27 04-Cello Concerto: 2. Langsam - Etwas lebhafter - Schneller (Fragment)
DR12 -10.05 dB -27.43 dB 10:00 05-Cello Concerto: 3. Sehr lebhaft - Schneller
DR15 -6.62 dB -27.02 dB 14:53 06-Till Eulenspiegels lustige Streiche
––––––––––––––––––––––––––––––––––––––––

Number of tracks: 6
Official DR value: DR13

Samplerate: 2822400 Hz / PCM Samplerate: 176400 Hz
Channels: 2
Bits per sample: 1
Bitrate: 5645 kbps
Codec: DSD64
================================================================================

––––––––––––––––––––––––––––––––––––––––
Analyzed: Berliner Philharmoniker, Wilhelm Furtwängler / The Radio Recordings 1939-1945 (Disc 15)
––––––––––––––––––––––––––––––––––––––––

DR Peak RMS Duration Track
––––––––––––––––––––––––––––––––––––––––
DR13 -13.37 dB -31.41 dB 2:12 01-Variations on a Theme by Haydn: Thema. Chorale St. Antoni. Andante
DR11 -14.53 dB -29.80 dB 1:22 02-Variations on a Theme by Haydn: Variation I. Poco più animato
DR14 -10.91 dB -28.04 dB 1:01 03-Variations on a Theme by Haydn: Variation II. Più vivace
DR12 -17.63 dB -33.13 dB 2:04 04-Variations on a Theme by Haydn: Variation III. Con moto
DR13 -14.13 dB -31.36 dB 2:46 05-Variations on a Theme by Haydn: Variation IV. Andante con moto
DR14 -14.70 dB -32.46 dB 0:54 06-Variations on a Theme by Haydn: Variation V. Vivace
DR12 -9.15 dB -24.61 dB 1:23 07-Variations on a Theme by Haydn: Variation VI. Vivace
DR13 -11.14 dB -30.13 dB 3:26 08-Variations on a Theme by Haydn: Variation VII. Grazioso
DR11 -18.20 dB -33.38 dB 1:05 09-Variations on a Theme by Haydn: Variation VIII. Presto non troppo
DR12 -7.18 dB -24.92 dB 3:42 10-Variations on a Theme by Haydn: Finale. Andante
DR13 -8.58 dB -26.25 dB 15:59 11-Piano Concerto No. 2: 1. Allegro non troppo
DR11 -10.59 dB -25.00 dB 8:07 12-Piano Concerto No. 2: 2. Allegro appassionato
DR13 -10.80 dB -30.33 dB 12:37 13-Piano Concerto No. 2: 3. Andante
DR11 -11.60 dB -26.09 dB 8:28 14-Piano Concerto No. 2: 4. Allegretto grazioso
––––––––––––––––––––––––––––––––––––––––

Number of tracks: 14
Official DR value: DR12

Samplerate: 2822400 Hz / PCM Samplerate: 176400 Hz
Channels: 2
Bits per sample: 1
Bitrate: 5645 kbps
Codec: DSD64
================================================================================

––––––––––––––––––––––––––––––––––––––––
Analyzed: Berliner Philharmoniker, Wilhelm Furtwängler / The Radio Recordings 1939-1945 (Disc 16)
––––––––––––––––––––––––––––––––––––––––

DR Peak RMS Duration Track
––––––––––––––––––––––––––––––––––––––––
DR9 -6.57 dB -19.81 dB 12:03 01-Symphony No. 4: 1. Allegro non troppo
DR10 -6.60 dB -22.31 dB 12:15 02-Symphony No. 4: 2. Andante moderato
DR12 -6.51 dB -22.27 dB 6:14 03-Symphony No. 4: 3. Allegro giocoso - Poco meno presto - Tempo I
DR11 -6.49 dB -21.97 dB 9:14 04-Symphony No. 4: 4. Allegro energico e passionato - Più allegro
––––––––––––––––––––––––––––––––––––––––

Number of tracks: 4
Official DR value: DR11

Samplerate: 2822400 Hz / PCM Samplerate: 176400 Hz
Channels: 2
Bits per sample: 1
Bitrate: 5645 kbps
Codec: DSD64
================================================================================

––––––––––––––––––––––––––––––––––––––––
Analyzed: Berliner Philharmoniker, Wilhelm Furtwängler / The Radio Recordings 1939-1945 (Disc 17)
––––––––––––––––––––––––––––––––––––––––

DR Peak RMS Duration Track
––––––––––––––––––––––––––––––––––––––––
DR14 -8.65 dB -27.62 dB 24:06 01-Violin Concerto: 1. Allegro ma non troppo
DR14 -8.22 dB -30.07 dB 10:53 02-Violin Concerto: 2. Larghetto
DR11 -8.41 dB -24.80 dB 8:54 03-Violin Concerto: 3. Rondo (Allegro)
––––––––––––––––––––––––––––––––––––––––

Number of tracks: 3
Official DR value: DR13

Samplerate: 2822400 Hz / PCM Samplerate: 176400 Hz
Channels: 2
Bits per sample: 1
Bitrate: 5645 kbps
Codec: DSD64
================================================================================

––––––––––––––––––––––––––––––––––––––––
Analyzed: Berliner Philharmoniker, Wilhelm Furtwängler / The Radio Recordings 1939-1945 (Disc 18)
––––––––––––––––––––––––––––––––––––––––

DR Peak RMS Duration Track
––––––––––––––––––––––––––––––––––––––––
DR13 -7.61 dB -25.97 dB 5:18 01-Symphonia domestica: Allegro
DR12 -7.27 dB -24.66 dB 11:45 02-Symphonia domestica: Scherzo
DR10 -6.97 dB -21.54 dB 12:38 03-Symphonia domestica: Adagio
DR11 -6.66 dB -21.62 dB 13:08 04-Symphonia domestica: Finale
––––––––––––––––––––––––––––––––––––––––

Number of tracks: 4
Official DR value: DR11

Samplerate: 2822400 Hz / PCM Samplerate: 176400 Hz
Channels: 2
Bits per sample: 1
Bitrate: 5645 kbps
Codec: DSD64
================================================================================

––––––––––––––––––––––––––––––––––––––––
Analyzed: Berliner Philharmoniker, Wilhelm Furtwängler / The Radio Recordings 1939-1945 (Disc 19)
––––––––––––––––––––––––––––––––––––––––

DR Peak RMS Duration Track
––––––––––––––––––––––––––––––––––––––––
DR12 -9.96 dB -25.57 dB 2:27 01-Concerto grosso, Op. 6 No. 10: 1. Overture
DR12 -10.70 dB -26.59 dB 3:12 02-Concerto grosso, Op. 6 No. 10: 2. Allegro
DR13 -12.90 dB -31.40 dB 5:11 03-Concerto grosso, Op. 6 No. 10: 3. Air (lento)
DR12 -10.90 dB -27.20 dB 4:12 04-Concerto grosso, Op. 6 No. 10: 5. Allegro
DR15 -12.03 dB -33.19 dB 2:47 05-Concerto grosso, Op. 6 No. 10: 6. Allegro moderato
DR13 -9.63 dB -26.25 dB 9:19 06-Symphony No. 39: 1. Adagio - Allegro
DR12 -8.30 dB -26.28 dB 9:27 07-Symphony No. 39: 2. Andante con moto
DR13 -9.13 dB -26.83 dB 3:48 08-Symphony No. 39: 3. Menuetto
DR12 -9.47 dB -24.82 dB 5:30 09-Symphony No. 39: 4. Allegro
––––––––––––––––––––––––––––––––––––––––

Number of tracks: 9
Official DR value: DR13

Samplerate: 2822400 Hz / PCM Samplerate: 176400 Hz
Channels: 2
Bits per sample: 1
Bitrate: 5645 kbps
Codec: DSD64
================================================================================

––––––––––––––––––––––––––––––––––––––––
Analyzed: Berliner Philharmoniker, Wilhelm Furtwängler / The Radio Recordings 1939-1945 (Disc 20)
––––––––––––––––––––––––––––––––––––––––

DR Peak RMS Duration Track
––––––––––––––––––––––––––––––––––––––––
DR11 -6.97 dB -23.38 dB 10:58 01-Der Freischütz: Overture
DR13 -12.47 dB -33.52 dB 2:59 02-Daphnis et Chloé, Suite No. 1: 2. Interlude
DR12 -8.52 dB -25.35 dB 4:10 03-Daphnis et Chloé, Suite No. 1: 3. Danse guerrère
DR11 -10.16 dB -26.70 dB 5:38 04-Daphnis et Chloé, Suite No. 2: 1. Lever du jour
DR14 -10.55 dB -29.64 dB 6:42 05-Daphnis et Chloé, Suite No. 2: 2. Pantomime
DR12 -8.32 dB -25.54 dB 4:10 06-Daphnis et Chloé, Suite No. 2: 3. Danse générale
DR11 -8.32 dB -23.78 dB 11:29 07-Symphony No. 6: 1. Allegro ma non troppo
DR13 -10.33 dB -28.96 dB 13:21 08-Symphony No. 6: 2. Andante molto mosso
DR11 -7.80 dB -22.93 dB 5:38 09-Symphony No. 6: 3. Allegro
DR13 -8.32 dB -25.98 dB 3:56 10-Symphony No. 6: 4. Allegro
DR11 -8.35 dB -24.04 dB 8:52 11-Symphony No. 6: 5. Allegretto
––––––––––––––––––––––––––––––––––––––––

Number of tracks: 11
Official DR value: DR12

Samplerate: 2822400 Hz / PCM Samplerate: 176400 Hz
Channels: 2
Bits per sample: 1
Bitrate: 5645 kbps
Codec: DSD64
================================================================================

––––––––––––––––––––––––––––––––––––––––
Analyzed: Berliner Philharmoniker, Wilhelm Furtwängler / The Radio Recordings 1939-1945 (Disc 21)
––––––––––––––––––––––––––––––––––––––––

DR Peak RMS Duration Track
––––––––––––––––––––––––––––––––––––––––
DR11 -6.74 dB -23.32 dB 23:42 01-Symphony No. 9: Feierlich - Misterioso
DR12 -6.86 dB -24.23 dB 9:36 02-Symphony No. 9: Scherzo. Bewegt, lebhaft-Trio: Schnell
DR14 -6.97 dB -27.12 dB 25:38 03-Symphony No. 9: Adagio - Langsam feierlich
––––––––––––––––––––––––––––––––––––––––

Number of tracks: 3
Official DR value: DR13

Samplerate: 2822400 Hz / PCM Samplerate: 176400 Hz
Channels: 2
Bits per sample: 1
Bitrate: 5645 kbps
Codec: DSD64
================================================================================

––––––––––––––––––––––––––––––––––––––––
Analyzed: Berliner Philharmoniker, Wilhelm Furtwängler / The Radio Recordings 1939-1945 (Disc 22)
––––––––––––––––––––––––––––––––––––––––

DR Peak RMS Duration Track
––––––––––––––––––––––––––––––––––––––––
DR13 -7.75 dB -25.50 dB 11:30 01-Symphony No. 7 "Unvollendete": 1. Allegro moderato
DR14 -6.59 dB -26.94 dB 11:29 02-Symphony No. 7 "Unvollendete": 2. Andante con moto
DR14 -7.79 dB -26.49 dB 16:49 03-Symphony No. 1: 4. Adagio - Più Andante - Allegro non troppo, ma con brio
DR14 -14.96 dB -31.16 dB 13:22 04-Interview with Friedrich Schnapp
––––––––––––––––––––––––––––––––––––––––

Number of tracks: 4
Official DR value: DR13

Samplerate: 2822400 Hz / PCM Samplerate: 176400 Hz
Channels: 2
Bits per sample: 1
Bitrate: 5645 kbps
Codec: DSD64

Thanks to the Original ripper!
Uncompressed SACD ISO size > 2,59+3,1+3,1+2,98+1,25+2,74+2,66+1,53+
3,07+2,08+2,89+1,7+2,93+2,47+2,61+1,59+1,75+1,71+1,84+3,13+2,36+2,14 GB
>