Please register here if you want to download anything!

If domain in your address bar is different from the list below
PLEASE LEAVE THAT SITE IMMEDIATELY
❗IT'S A DANGEROUS FAKE❗



Spicy Magazines for Men! ;-)

Wilson Pickett - The Sound Of Wilson Pickett (1967/2012) [Official Digital Download 24bit/96kHz]

Posted By: HDV
Wilson Pickett - The Sound Of Wilson Pickett (1967/2012) [Official Digital Download 24bit/96kHz]

Wilson Pickett - The Sound Of Wilson Pickett (1967/2012)
FLAC (tracks) 24 bit/96 kHz | Time - 29:55 minutes | 685 MB
Studio Master, Official Digital Download | Artwork: Front cover

Epitomizing soul, Wilson Pickett let loose with his 1967 release, "The Sound Of Wilson Pickett". The album featured iconic session players, Chips Moman and Spooner Oldham. One of the greatest voices in music history, Pickett wailed on the tunes, “Funky Broadway”, “I Found A Love”, “You Can’t Stand Alone” and “Love Is A Beautiful Thing”. Reaching #7 on Billboard's R&B charts, the album is widely regarded as his finest of the decade and is a treasured masterpiece.

The Sound of Wilson Pickett was one of the three albums Atlantic issued by the Wicked One in 1967. Produced by Jerry Wexler (who got co-writes on a couple of tracks), it featured great session players like Chips Moman and Spooner Oldham, to name just two. Looking at the track list, it looks like a slew of hits. But it wasn't. In fact, it was two sides packed with singles. While it contains his absolutely classic, wailing read of "Funky Broadway," it also features both parts of "I Found a Love" (renamed "I Found a True Love" for the 1968 album The Midnight Mover), the Oldham and Dan Penn suggestive classic "I Need a Lot of Loving Everyday." Pickett's reading of the song with a killer female backing chorus smolders with nocturnal nether-hipped fire. Pickett's version of Rudy Clark's swaggering "You Can't Stand Alone" is a burning throw-down with awesome guitar and horn charts and a killer little Farfisa break in the middle. He also sings the deep Memphis blues on "Something Within Me." The set closes with one of his finest performances, his signature reading of "Love Is a Beautiful Thing." Arguably, The Sound of Wilson Pickett may be his finest album performance of the entire decade.

Tracklist:

01 - Soul Dance Number Three
02 - Funky Broadway
03 - I Need A Lot Of Loving Every Day
04 - I Found A Love - Part I
05 - I Found A Love - Part II
06 - You Can't Stand Alone
07 - Mojo Mama
08 - I Found The One
09 - Something Within Me
10 - I'm Sorry About That
11 - Love Is A Beautiful Thing

Analyzed: Wilson Pickett / The Sound Of Wilson Pickett
––––––––––––––––––––––––––––––––––––––––

DR Peak RMS Duration Track
––––––––––––––––––––––––––––––––––––––––
DR14 -1.95 dB -17.87 dB 2:41 01-Soul Dance Number Three
DR14 -4.04 dB -21.38 dB 2:38 02-Funky Broadway
DR12 -0.01 dB -17.98 dB 2:24 03-I Need A Lot Of Loving Every Day
DR13 -4.15 dB -19.88 dB 2:34 04-I Found A Love - Part I
DR13 -2.33 dB -17.98 dB 2:58 05-I Found A Love - Part II
DR12 -0.01 dB -14.71 dB 2:54 06-You Can't Stand Alone
DR13 -1.13 dB -17.34 dB 2:03 07-Mojo Mama
DR13 -0.46 dB -17.90 dB 2:34 08-I Found The One
DR12 -0.02 dB -14.40 dB 3:44 09-Something Within Me
DR13 -2.81 dB -19.70 dB 3:09 10-I'm Sorry About That
DR12 -1.11 dB -16.11 dB 2:15 11-Love Is A Beautiful Thing
––––––––––––––––––––––––––––––––––––––––

Number of tracks: 11
Official DR value: DR13

Samplerate: 96000 Hz
Channels: 2
Bits per sample: 24
Bitrate: 3056 kbps
Codec: FLAC
================================================================================


Thanks to the Original customer!