Tags
Language
Tags

( 웅산 ) Woong San - The Best (2014) [Official Digital Download 24/176]

Posted By: HDV
( 웅산 ) Woong San - The Best (2014) [Official Digital Download 24/176]

Woong San - The Best (2014)
FLAC (tracks) 24-bit/176,4 kHz | Time - 57:57 minutes | 1,88 GB
Studio Master, Official Digital Download | Artwork: Front cover

WoongSan (born Kim Eun Young) is an award-winning South Korean musician, actress and TV show host. She has been a leading figure in the Jazz music scene in Korea and Japan for over a decade, having performed live over 500 times since her 1998 Japanese debut. She is the first Korean-born musician to perform at New York City's historic Blue Note Jazz Club and has collaborated with many other well-known jazz musicians including Benny Green, Lonnie Plaxico, Rodney Green, Conrad Herwig and Suzuki Hisatsugu. WoongSan's style is a distinctive blend of jazz, blues, Latin and funk style. Her mid-low voice does not span as much tonal ground as other famous singers, but what she lacks in range she more than makes up for in creativity and malleability. As an independent lyricist, Woong San has penned powerful ballads, cozy love numbers and everything in between. Her work has been described as "soulful, fearless, sultry".


Tracklist:

01 - On A Sunny Day (매일 그대와)
02 - Yesterday
03 - Street Life
04 - The Days Of Wine And Roses
05 - Tomorrow
06 - Vivaldi's Song
07 - I Love You
08 - Windy Spring
09 - The Water Is Wide
10 - Smooth
11 - Call Me
12 - 미소를 띄우며 나를 보낸 그 모습처럼
13 - Loving You Was Like A Party

Analyzed: Woong San 웅산 / The Best Woong San
––––––––––––––––––––––––––––––––––––––––

DR Peak RMS Duration Track
––––––––––––––––––––––––––––––––––––––––
DR10 -1.04 dB -13.93 dB 2:51 1/13-On A Sunny Day (매일 그대와)
DR9 -1.48 dB -12.74 dB 4:29 2/13-Yesterday
DR10 0.00 dB -11.67 dB 4:23 3/13-Street Life
DR10 0.00 dB -11.98 dB 4:24 4/13-The Days Of Wine And Roses
DR9 -0.43 dB -12.60 dB 4:16 5/13-Tomorrow
DR12 -1.72 dB -16.46 dB 4:42 6/13-Vivaldi's Song
DR6 0.00 dB -11.05 dB 4:49 7/13-I Love You
DR10 -1.40 dB -12.49 dB 4:20 8/13-Windy Spring
DR8 0.00 dB -10.80 dB 4:48 9/13-The Water Is Wide
DR9 0.00 dB -11.92 dB 5:01 10/13-Smooth
DR10 -0.03 dB -12.84 dB 4:26 11/13-Call Me
DR10 -0.94 dB -13.85 dB 4:41 12/13-미소를 띄우며 나를 보낸 그 모습처럼
DR8 -0.91 dB -12.11 dB 4:48 13/13-Loving You Was Like A Party
––––––––––––––––––––––––––––––––––––––––

Number of tracks: 13
Official DR value: DR9

Samplerate: 176400 Hz
Channels: 2
Bits per sample: 24
Bitrate: 4683 kbps
Codec: FLAC
================================================================================


Thanks to the Original customer!