Tags
Language
Tags

Wynton Kelly - Kelly Blue (1959) [Reissue 2004] PS3 ISO + DSD64 + Hi-Res FLAC

Posted By: HDAtall
Wynton Kelly - Kelly Blue (1959) [Reissue 2004] PS3 ISO + DSD64 + Hi-Res FLAC

Wynton Kelly Trio and Sextet - Kelly Blue (1959) [Reissue 2004]
PS3 Rip | SACD ISO | DSD64 2.0 > 1-bit/2.8224 MHz | 56:26 minutes | Scans included | 1,69 GB
or DSD64 2.0 (from SACD-ISO to Tracks.dsf) > 1-bit/2.8224 MHz | Full Scans included | 1,48 GB
or FLAC (carefully converted & encoded to tracks) 24bit/96 kHz | Full Scans included | 1,27 GB

Coming off of his success as a sideman with Miles Davis' sextet, Riverside Records gave Kelly an opportunity to expand on his solo career. Kelly Blue was his second LP for the label. The songs feature Kelly and bassist Paul Chambers and drummer Jimmy Cobb. Together they had formed the rhythm section for the Miles Davis bands. Guests include Nat Adderley, Bobby Jaspar and Benny Golson. Producer and jazz critic Orrin Keepnews described the album as "a repertoire ideally suited to the blues concept on which the album is based".

Recorded for Riverside, this set mostly features the influential pianist Wynton Kelly in a trio with his fellow rhythm-section mates from the Miles Davis bands, bassist Paul Chambers and drummer Jimmy Cobb. "Kelly Blue" and "Keep It Moving" add cornetist Nat Adderley, flutist Bobby Jaspar and the tenor of Benny Golson to the band for some variety. Kelly was renowned as an accompanist, but as he shows on a set including three of his originals and four familiar standards (including "Softly, As in a Morning Sunrise" and "Willow Weep for Me"), he was also a strong bop-based soloist too. A fine example of his talents.

Tracklist:

01. Kelly Blue
02. Softly, As In A Morning Sunrise
03. Do Nothing Till You Hear From Me [Bonus Track]
04. On Green Dolphin Street
05. Willow Weep For Me
06. Keep It Moving (take 4)
07. Keep It Moving (take 3) [Bonus Track]
08. Old Clothes

Produced by Orrin Keepnews. Engineered by Jack Higgins.
Recorded on February 19 ("1, 6 & 7") and March 10, 1959.

Personnel
Wynton Kelly - piano
Nat Adderley - cornet on "1 & 5"
Bobby Jaspar - flute on "1, 6 & 7"
Benny Golson - tenor saxophone on "1, 6 & 7"
Paul Chambers - bass
Jimmy Cobb - drums

foobar2000 1.6.6 / Dynamic Range Meter 1.1.1

––––––––––––––––––––––––––––––––––––––––
Analyzed: Wynton Kelly Trio & Sextet / Kelly Blue
––––––––––––––––––––––––––––––––––––––––

DR Peak RMS Duration Track
––––––––––––––––––––––––––––––––––––––––
DR13 -6.04 dB -22.65 dB 10:48 01-Kelly Blue
DR14 -5.37 dB -23.53 dB 6:30 02-Softly, As In A Morning Sunrise
DR11 -6.07 dB -20.22 dB 4:23 03-Do Nothing Till You Hear From Me
DR12 -4.75 dB -20.68 dB 4:41 04-On Green Dolphin Street
DR12 -5.38 dB -21.06 dB 6:05 05-Willow Weep For Me
DR11 -6.78 dB -22.45 dB 7:30 06-Keep It Moving (take 4)
DR11 -6.31 dB -22.40 dB 8:48 07-Keep It Moving (take 3)
DR13 -7.58 dB -22.97 dB 7:41 08-Old Clothes
––––––––––––––––––––––––––––––––––––––––

Number of tracks: 8
Official DR value: DR12

Samplerate: 2822400 Hz / PCM Samplerate: 176400 Hz
Channels: 2
Bits per sample: 1
Bitrate: 5645 kbps
Codec: DSD64


Thanks to ManWhoCan!
Uncompressed SACD ISO size > 2,27 GB
>