Yehudi Menuhin - Yehudi! The Art Of Menuhin (2016) [Official Digital Download 24-bit/96 kHz]

Posted By: HDV
Yehudi Menuhin - Yehudi! The Art Of Menuhin (2016) [Official Digital Download 24-bit/96 kHz]

Yehudi Menuhin - Yehudi! The Art Of Menuhin (2016)
FLAC (tracks) 24-bit/96 kHz | Time - 215:08 minutes | 3,81 GB
Studio Master, Official Digital Download | Artwork: Digital booklet

The Warner Classics catalogue contains 70 years' worth of his recordings and this 3-CD collection, Yehudi!, provides a facinating perspective on his achievements: Menuhin was a man of ideals who changed the world through music.

“Now I know there is a God in heaven!”, exclaimed Albert Einstein when he heard the young Yehudi Menuhin play the violin. Not only was Menuhin an extraordinary musician, he lived through – and helped to shape – a momentous period in history. The Warner Classics catalogue contains 70 years’ worth of his recordings and this 3-CD collection, Yehudi!, provides a fascinating perspective on his achievements: Menuhin was a man of ideals who changed the world through music.

Tracklist:

01 - Violin Concerto No. 1 in A Minor, BWV 1041: I. [Allegro]
02 - Violin Concerto No. 2 in E Major, BWV 1042: II. Adagio
03 - Le quattro stagioni (The Four Seasons), Violin Concerto in G Minor Op. 8, No. 2, RV 315, "Summer": III. Presto (Tempo impetuoso d'estate)
04 - Violin Concerto No. 22 in A Minor, G. 97: II. Adagio
05 - Violin Concerto in D Major, Op. 61: III. Rondo - Allegro (Cadenza by Kreisler)
06 - Violin Concerto No. 2 in E Minor, Op. 64: I. Allegro molto appassionato
07 - Violin Concerto in D Minor, MWV O 3: III. Allegro
08 - Violin Concerto in D Major, Op. 35: II. Canzonetta - Andante
09 - Violin Concerto in D Major, Op. 77: III. Allegro giocoso, ma non troppo vivace
10 - Violin Concerto No. 2 in B Minor, Op. 7, 'La Campanella': III. Rondo - La Campanella
11 - Violin Sonata No. 5 in F Major, Op. 24, 'Spring': I. Allegro
12 - Violin Sonata No. 5 in F Major, Op. 24, 'Spring': II. Adagio molto espressivo
13 - Violin Sonata No. 5 in F Major, Op. 24, 'Spring': III. Schezo (Allegro molto)
14 - Violin Sonata No. 5 in F Major, Op. 24, 'Spring': IV. Rondo (Allegro ma non troppo)
15 - Violin Sonata No. 9 in A Major, Op. 47, 'Kreutzer': III. Finale (Presto)
16 - Violin Sonata No. 3 in D Minor, Op. 108: III. Un poco presto e con sentimento
17 - Piano Trio No. 1 in B-Flat Major, D. 898: II. Andante un poco mosso
18 - Violin Sonata No. 35 in A Major, K. 526: II. Andante
19 - Sonata for Violin Solo No. 3 in C Major, BWV 1005: IV. Allegro assai
20 - Violin Sonata in E Major, BWV 1016: III. Adagio, ma non tanto
21 - Violin Sonata in A Major, FWV 8: II. Allegro
22 - Piano Quartet No. 1 in C Minor, Op. 15: II. Scherzo - Allegro vivo
23 - Berceuse in D Major, Op. 16
24 - 21 Hungarian Dances, WoO 1: No. 5 in G Minor
25 - L'arte del violino, Op. 3 No. 13: Caprice No. 23 in D Major, 'Harmonious Labyrinth'
26 - Violin Sonata Op. 5 No. 12 in D Minor, 'La Folia'
27 - Ave Maria, D. 839
28 - Symphony No. 9 in E Minor, Op. 95, 'From the New World': Negro Spiritual Melody
29 - 8 Slavonic Dances, Op. 72: No. 2 in E Minor
30 - Coppélia, Act 1: No. 5 Ballade de l'Epi
31 - Sylvia, Act 3: No. 16b Pas de deux
32 - Preludes, Book 1, L. 117: VIII. La Fille aux cheveux de lin
33 - 3 Old Viennese Dances: No. 2 Liebesleid
34 - 3 Old Viennese Dances: No. 1 Liebesfreud
35 - 3 Old Viennese Dances: No. 3 Schön Rosmarin
36 - Andante con variazioni in F Major
37 - Prabhati (based on Raga Gunkali)
38 - Viva Vivaldi
39 - Air on a Shoestring

See more info here

Analyzed: Yehudi Menuhin, Bath Festival Orchestra, Robert Masters Chamber Orchestra / Yehudi! The Art of Menuhin (1-2)
Yehudi Menuhin, George Malcolm, Ambrose Gauntlett / Yehudi! The Art of Menuhin (3)
Yehudi Menuhin, George Malcolm, Robert Donington / Yehudi! The Art of Menuhin (4)
Yehudi Menuhin, Gerald Moore / Yehudi! The Art of Menuhin (5-13)
Yehudi Menuhin, Hephzibah Menuhin / Yehudi! The Art of Menuhin (14-20)
Yehudi Menuhin, Jeremy Menuhin, Ernst Wallfisch, Maurice Gendron / Yehudi! The Art of Menuhin (21)
Yehudi Menuhin, Jeremy Menuhin / Yehudi! The Art of Menuhin (22)
Yehudi Menuhin, Louis Kentner / Yehudi! The Art of Menuhin (23)
Yehudi Menuhin, Maurice Gendron, Hephzibah Menuhin / Yehudi! The Art of Menuhin (24)
Yehudi Menuhin, Menuhin Festival Orchestra / Yehudi! The Art of Menuhin (25)
Yehudi Menuhin, Nicanor Zabaleta / Yehudi! The Art of Menuhin (26)
Yehudi Menuhin, Paul Cocker, Camerata Lysy Gstaad, Alberto Lysy / Yehudi! The Art of Menuhin (27)
Yehudi Menuhin, Philharmonia Orchestra, Anatole Fistoulari / Yehudi! The Art of Menuhin (28)
Yehudi Menuhin, Philharmonia Orchestra, Efrem Kurtz / Yehudi! The Art of Menuhin (29)
Yehudi Menuhin, Philharmonia Orchestra, Robert Irving / Yehudi! The Art of Menuhin (30-31)
Yehudi Menuhin, Philharmonia Orchestra, Sir Adrian Boult / Yehudi! The Art of Menuhin (32)
Yehudi Menuhin, Philharmonia Orchestra, Wilhelm Furtwängler / Yehudi! The Art of Menuhin (33)
Yehudi Menuhin, Philharmonique de Berlin, Rudolf Kempe / Yehudi! The Art of Menuhin (34)
Yehudi Menuhin, Ravi Shankar, Alla Rakha, Nodu Mulli, Amiya DasGupta / Yehudi! The Art of Menuhin (35)
Yehudi Menuhin, Royal Philharmonic Orchestra, Sir Adrian Boult / Yehudi! The Art of Menuhin (36)
Yehudi Menuhin, Stephane Grappelli, Laurie Holloway, Woodwind and Reed Ensemble, Pierre Michelot, Ronnie Verrell, Max Harris / Yehudi! The Art of Menuhin (37-38)
Yehudi Menuhin / Yehudi! The Art of Menuhin (39)
––––––––––––––––––––––––––––––––––––––––

DR Peak RMS Duration Track
––––––––––––––––––––––––––––––––––––––––
DR12 -3.59 dB -19.40 dB 4:15 01-Violin Concerto No. 1 in A Minor, BWV 1041: I. [Allegro]
DR13 -8.65 dB -25.53 dB 7:12 02-Violin Concerto No. 2 in E Major, BWV 1042: II. Adagio
DR12 -9.47 dB -26.61 dB 5:20 20-Violin Sonata in E Major, BWV 1016: III. Adagio, ma non tanto
DR14 -6.97 dB -25.09 dB 13:11 26-Violin Sonata Op. 5 No. 12 in D Minor, 'La Folia'
DR12 -4.71 dB -20.91 dB 2:09 24-21 Hungarian Dances, WoO 1: No. 5 in G Minor
DR12 -4.52 dB -19.97 dB 3:06 25-L'arte del violino, Op. 3 No. 13: Caprice No. 23 in D Major, 'Harmonious Labyrinth'
DR12 -6.21 dB -22.34 dB 4:50 27-Ave Maria, D. 839
DR13 -4.47 dB -22.47 dB 3:49 28-Symphony No. 9 in E Minor, Op. 95, 'From the New World': Negro Spiritual Melody
DR12 -6.70 dB -22.90 dB 4:04 29-8 Slavonic Dances, Op. 72: No. 2 in E Minor
DR13 -5.66 dB -25.15 dB 2:40 32-Preludes, Book 1, L. 117: VIII. La Fille aux cheveux de lin
DR14 -7.75 dB -26.87 dB 3:38 33-3 Old Viennese Dances: No. 2 Liebesleid
DR14 -5.22 dB -23.61 dB 3:14 34-3 Old Viennese Dances: No. 1 Liebesfreud
DR12 -6.42 dB -24.29 dB 1:59 35-3 Old Viennese Dances: No. 3 Schön Rosmarin
DR13 -2.57 dB -20.96 dB 10:00 11-Violin Sonata No. 5 in F Major, Op. 24, 'Spring': I. Allegro
DR14 -8.43 dB -28.69 dB 6:34 12-Violin Sonata No. 5 in F Major, Op. 24, 'Spring': II. Adagio molto espressivo
DR12 -4.15 dB -20.61 dB 1:08 13-Violin Sonata No. 5 in F Major, Op. 24, 'Spring': III. Schezo (Allegro molto)
DR12 -2.11 dB -20.06 dB 6:43 14-Violin Sonata No. 5 in F Major, Op. 24, 'Spring': IV. Rondo (Allegro ma non troppo)
DR13 -3.52 dB -21.20 dB 6:49 15-Violin Sonata No. 9 in A Major, Op. 47, 'Kreutzer': III. Finale (Presto)
DR13 -6.29 dB -25.02 dB 7:05 18-Violin Sonata No. 35 in A Major, K. 526: II. Andante
DR11 -6.48 dB -22.37 dB 8:08 21-Violin Sonata in A Major, FWV 8: II. Allegro
DR13 -3.90 dB -21.73 dB 5:22 22-Piano Quartet No. 1 in C Minor, Op. 15: II. Scherzo - Allegro vivo
DR11 -10.13 dB -25.97 dB 3:43 23-Berceuse in D Major, Op. 16
DR10 -8.15 dB -25.03 dB 3:05 16-Violin Sonata No. 3 in D Minor, Op. 108: III. Un poco presto e con sentimento
DR17 -3.82 dB -25.32 dB 9:17 17-Piano Trio No. 1 in B-Flat Major, D. 898: II. Andante un poco mosso
DR14 -6.28 dB -25.67 dB 7:20 04-Violin Concerto No. 22 in A Minor, G. 97: II. Adagio
DR14 -2.88 dB -22.54 dB 4:15 36-Andante con variazioni in F Major
DR13 -5.81 dB -22.34 dB 2:49 03-Le quattro stagioni (The Four Seasons), Violin Concerto in G Minor Op. 8, No. 2, RV 315, "Summer": III. Presto (Tempo impetuoso d'estate)
DR13 -3.10 dB -20.26 dB 7:54 10-Violin Concerto No. 2 in B Minor, Op. 7, 'La Campanella': III. Rondo - La Campanella
DR13 -2.16 dB -21.11 dB 12:24 06-Violin Concerto No. 2 in E Minor, Op. 64: I. Allegro molto appassionato
DR11 -7.37 dB -23.74 dB 2:40 30-Coppélia, Act 1: No. 5 Ballade de l'Epi
DR13 -3.65 dB -23.31 dB 4:40 31-Sylvia, Act 3: No. 16b Pas de deux
DR14 -4.62 dB -22.69 dB 6:00 07-Violin Concerto in D Minor, MWV O 3: III. Allegro
DR12 -1.91 dB -19.96 dB 10:34 05-Violin Concerto in D Major, Op. 61: III. Rondo - Allegro (Cadenza by Kreisler)
DR14 -2.00 dB -20.70 dB 8:19 09-Violin Concerto in D Major, Op. 77: III. Allegro giocoso, ma non troppo vivace
DR13 -5.90 dB -23.34 dB 4:11 37-Prabhati (based on Raga Gunkali)
DR13 -11.24 dB -28.93 dB 6:43 08-Violin Concerto in D Major, Op. 35: II. Canzonetta - Andante
DR14 -3.23 dB -19.35 dB 2:26 38-Viva Vivaldi
DR14 -2.92 dB -20.19 dB 3:40 39-Air on a Shoestring
DR14 -11.53 dB -28.78 dB 3:54 19-Sonata for Violin Solo No. 3 in C Major, BWV 1005: IV. Allegro assai
––––––––––––––––––––––––––––––––––––––––

Number of tracks: 39
Official DR value: DR13

Samplerate: 96000 Hz
Channels: 2
Bits per sample: 24
Bitrate: 2147 kbps
Codec: FLAC
================================================================================


Thanks to the Original customer!