Tags
Language
Tags

Yes - Close To The Edge (1972/2013) [High Fidelity Pure Audio Blu-Ray Disc+FLAC]

Posted By: HDV
Yes - Close To The Edge (1972/2013) [High Fidelity Pure Audio Blu-Ray Disc+FLAC]

Yes - Close To The Edge (1972/2013) [High Fidelity Pure Audio Blu-Ray Disc]
Blu-Ray: LPCM 2.0 & 5.1 24bit/96(192)kHz and DTS-HD Master Audio 5.1 24bit/48kHz | 20,93 GB
FLAC: 2.0 Stereo | Tracks 24bit/96kHz(192) - 5,36 GB, Includes Extas | Complete Scans - 177 MB

Blu-Ray edition of the progressive rock masterpiece from 1972, the first in a series of Yes albums to get the deluxe remix treatment. Featuring new Stereo and 5.1 Surround Sound mixes by Steven Wilson from the original multitrack reels, a flat transfer of the original stereo mix, instrumental mixes, and other bonus material. Presented in a mini vinyl replica gatefold card sleeve with booklet featuring new sleeve notes by Sid Smith, along with rare photos and archive material, the album has been mixed for 5.1 Surround Sound from the original studio masters by Steven Wilson and is fully approved by Yes.

When Yes entered the studio with Eddie Offord to record the band’s fifth studio album in mid-1972, their second with this line-up, the band was on something of a roll. “Fragile”, the band’s previous album, had taken Yes to a new level of international popularity with Top Ten chart placement on both sides of the Atlantic & yielding a hit single in the USA with ‘Roundabout’. The band was now established in the major music markets to an extent that was, perhaps, unexpected given the complexity of the music Yes performed. But with that popularity came a confidence that the expansive material of the two previous albums could be taken a stage further with the new recording. Rather than consolidating, Yes chose to innovate.

Recorded during lengthy sessions at London’s Advision Studios, “Close to the Edge” is that rarity in recorded music, the sound of a band & its individual members writing, playing and recording at the peak of their collective abilities. The album was issued in Autumn 1972 reaching chart highs & platinum sales status of 4 in the UK, 3 in the USA & 1 in Holland, though such statistics only hint at the worldwide popularity of the album over a period of more than four decades. The three pieces of music, the title track which spanned the entire first side of the vinyl album with ‘And You And I’ & ‘Siberian Khatru’ on side two, have remained concert favourites since release, with the 2013 Yes line-up currently in the middle of a world tour stretching into the middle of next year that sees the album performed in its entirety.

The album remains the favourite among many of the band’s legion of fans, a defining recording both for the band & for the progressive rock movement. It is also one of the most successful British rock albums ever released.

Since this release of “Close to the Edge” was confirmed, the various websites dedicated to Yes, Progressive rock & high-resolution audio have been very active with discussions among fans keen to hear the new mixes & the existing material in its purest audio presentation.

Blu-Ray content:

2013 Surround Mixes (LPCM 5.1 - 24/96)

01. Close To The Edge (5.1 Surround Mix) [18:41]
02. And You And I (5.1 Surround Mix) [10:13]
03. Siberian Khatru (5.1 Surround Mix) [8:58]
04. America (5.1 Surround Mix) [10:37]

Disc Title: Close To The Edge
Disc Size: 23 342 399 973 bytes
Protection: AACS
BD-Java: Yes
Playlist: 00002.MPLS
Size: 9 480 417 600 bytes
Length: 0:37:54
Total Bitrate: 33,35 Mbps
Video: MPEG-4 AVC Video / 3605 kbps / 1080p / 23,976 fps / 16:9 / High Profile 4.1
Audio: Undetermined / LPCM Audio / 5.1 / 96 kHz / 13824 kbps / 24-bit
Audio: Undetermined / DTS-HD Master Audio / 5.1 / 48 kHz / 4508 kbps / 24-bit (DTS Core: 5.1 / 48 kHz / 1509 kbps / 24-bit)
Audio: Undetermined / LPCM Audio / 2.0 / 96 kHz / 4608 kbps / 24-bit
Audio: Undetermined / LPCM Audio / 2.0 / 96 kHz / 4608 kbps / 24-bit


on Full Blu-Ray only
DR = 14.

NTSC, all regions, LPCM playable in all Blu-Ray players & Blu-Ray drives.



2013 Stereo Mixes (24/96)
01. Close To The Edge (2013 Stereo Mix) [18:41]
02. And You And I (2013 Stereo Mix) [10:13]
03. Siberian Khatru (2013 Stereo Mix) [8:58]
04. America (2013 Stereo Mix) [10:37]

Analyzed: Yes / Close To The Edge
––––––––––––––––––––––––––––––––––––––––

DR Peak RMS Duration Track
––––––––––––––––––––––––––––––––––––––––
DR11 -0.40 dB -14.11 dB 18:41 01-Close To The Edge (2013 Stereo Mix)
DR11 -0.40 dB -14.96 dB 10:13 02-And You And I (2013 Stereo Mix)
DR12 -0.40 dB -14.27 dB 8:58 03-Siberian Khatru (2013 Stereo Mix)
DR11 -0.40 dB -13.61 dB 10:37 04-America (2013 Stereo Mix)
––––––––––––––––––––––––––––––––––––––––

Number of tracks: 4
Official DR value: DR11

Samplerate: 96000 Hz
Channels: 2
Bits per sample: 24
Bitrate: 2885 kbps
Codec: FLAC
================================================================================



2013 Stereo Instrumental Mixes (24/96)
01. Close To The Edge (2013 Stereo Instrumental Mix) [18:41]
02. And You And I (2013 Stereo Instrumental Mix) [10:13]
03. Siberian Khatru (2013 Stereo Instrumental Mix) [8:58]
04. America (2013 Stereo Instrumental Mix) [10:37]

Analyzed: Yes / Close To The Edge
––––––––––––––––––––––––––––––––––––––––

DR Peak RMS Duration Track
––––––––––––––––––––––––––––––––––––––––
DR11 -0.40 dB -14.95 dB 18:41 01-Close To The Edge (2013 Stereo Instrumental Mix)
DR12 -0.40 dB -15.63 dB 10:13 02-And You And I (2013 Stereo Instrumental Mix)
DR12 -0.40 dB -14.91 dB 8:58 03-Siberian Khatru (2013 Stereo Instrumental Mix)
DR11 -0.40 dB -14.01 dB 10:37 04-America (2013 Stereo Instrumental Mix)
––––––––––––––––––––––––––––––––––––––––

Number of tracks: 4
Official DR value: DR11

Samplerate: 96000 Hz
Channels: 2
Bits per sample: 24
Bitrate: 2828 kbps
Codec: FLAC
================================================================================



Single Versions & Edits (24/96)
01. Total Mass Retain (Single Edit) [3:26]
02. And You And I (Promo Single Edit, Mono) [3:30]
03. And You And I (Promo Single Edit, Stereo) [3:30]
04. America (Single Version) [4:21]

Analyzed: Yes / Close To The Edge
––––––––––––––––––––––––––––––––––––––––

DR Peak RMS Duration Track
––––––––––––––––––––––––––––––––––––––––
DR9 -7.57 dB -19.54 dB 3:26 01-Total Mass Retain (Single Edit)
DR10 -7.05 dB -19.28 dB 3:30 02-And You And I (Promo Single Edit, Mono)
DR11 -2.43 dB -15.38 dB 3:30 03-And You And I (Promo Single Edit, Stereo)
DR10 -6.93 dB -19.13 dB 4:21 04-America (Single Version)
––––––––––––––––––––––––––––––––––––––––

Number of tracks: 4
Official DR value: DR10

Samplerate: 96000 Hz
Channels: 2
Bits per sample: 24
Bitrate: 1583 kbps
Codec: FLAC
================================================================================



The Alternate Album (24/96)
01. Close To The Edge (Early assembly/Rough mix) [17:41]
02. And You And I (Alternate version) [10:17]
03. Siberian (Studio run-through of Siberian Khatru) [9:23]

Analyzed: Yes / Close To The Edge
––––––––––––––––––––––––––––––––––––––––

DR Peak RMS Duration Track
––––––––––––––––––––––––––––––––––––––––
DR13 -2.25 dB -19.55 dB 17:41 01-Close To The Edge (Early assembly/Rough mix)
DR9 -5.88 dB -18.99 dB 10:17 02-And You And I (Alternate version)
DR9 -5.28 dB -17.47 dB 9:23 03-Siberian (Studio run-through of Siberian Khatru)
––––––––––––––––––––––––––––––––––––––––

Number of tracks: 3
Official DR value: DR10

Samplerate: 96000 Hz
Channels: 2
Bits per sample: 24
Bitrate: 2716 kbps
Codec: FLAC
================================================================================



Original Stereo Mixes - Flat transfer from Original master (24/192)
01. Close To The Edge (Original Stereo Mix) [18:47]
02. And You And I (Original Stereo Mix) [10:14]
03. Siberian Khatru (Original Stereo Mix) [9:06]
04. America (Original Mix) [10:33]

Analyzed: Yes / Close To The Edge
––––––––––––––––––––––––––––––––––––––––

DR Peak RMS Duration Track
––––––––––––––––––––––––––––––––––––––––
DR11 -5.45 dB -20.07 dB 18:47 01-Close To The Edge (Original Stereo Mix)
DR11 -5.64 dB -20.64 dB 10:14 02-And You And I (Original Stereo Mix)
DR11 -4.28 dB -18.46 dB 9:06 03-Siberian Khatru (Original Stereo Mix)
DR10 -6.67 dB -19.18 dB 10:33 04-America (Original Mix)
––––––––––––––––––––––––––––––––––––––––

Number of tracks: 4
Official DR value: DR11

Samplerate: 192000 Hz
Channels: 2
Bits per sample: 24
Bitrate: 4885 kbps
Codec: FLAC
================================================================================



UK Vinyl Transfer - A1/B1 UK Vinyl Needle-drop Transfer (24/96)
01. Close To The Edge (UK Vinyl Transfer) [18:33]
02. And You And I (UK Vinyl Transfer) [10:08]
03. Siberian Khatru (UK Vinyl Transfer) [9:00]

Analyzed: Yes / Close To The Edge
––––––––––––––––––––––––––––––––––––––––

DR Peak RMS Duration Track
––––––––––––––––––––––––––––––––––––––––
DR11 -1.30 dB -18.84 dB 18:33 01-Close To The Edge (UK Vinyl Transfer)
DR11 -4.64 dB -19.72 dB 10:08 02-And You And I (UK Vinyl Transfer)
DR10 -5.66 dB -17.59 dB 9:00 03-Siberian Khatru (UK Vinyl Transfer)
––––––––––––––––––––––––––––––––––––––––

Number of tracks: 3
Official DR value: DR11

Samplerate: 96000 Hz
Channels: 2
Bits per sample: 24
Bitrate: 2590 kbps
Codec: FLAC
================================================================================


Original Album Produced by Eddie Offord & Yes.
Original Vinyl Needle-drop Transfer by John Kimber.
All New Mixes by Steven Wilson.

Yes - Close To The Edge (1972/2013) [High Fidelity Pure Audio Blu-Ray Disc+FLAC]
Yes - Close To The Edge (1972/2013) [High Fidelity Pure Audio Blu-Ray Disc+FLAC]

Blu-Ray uncompressed size = 21,73 GB
ALL FLAC files were fully tagged.