Yes - Fragile (1972) [Japanese SACD 2011] MCH PS3 ISO + DSD64 + Hi-Res FLAC

Posted By: HDAtall
Yes - Fragile (1972) [Japanese SACD 2011] MCH PS3 ISO + DSD64 + Hi-Res FLAC

Yes - Fragile (1972) [Japanese Reissue 2011]
PS3 Rip | SACD ISO | DST64 2.0 & 5.1 > 1-bit/2.8224 MHz | 51:57 minutes | Scans included | 3,82 GB
or DSD64 2.0 Stereo (from SACD-ISO to Tracks.dsf) > 1-bit/2.8224 MHz | Full Scans included | 1,5 GB
or FLAC 2.0 (carefully converted & encoded to tracks) 24bit/96 kHz | Full Scans included | 1,28 GB
Features Stereo and Multichannel Surround Sound | Warner Music Japan # WPCR-14167

Fragile was Yes' breakthrough album, propelling them in a matter of weeks from a cult act to an international phenomenon; not coincidentally, it also marked the point where all of the elements of the music (and more) that would define their success for more than a decade fell into place fully formed. The science-fiction and fantasy elements that had driven the more successful songs on their preceding record, The Yes Album, were pushed much harder here, and not just in the music but in the packaging of the album:the Roger Dean-designed cover was itself a fascinating creation that seemed to relate to the music and drew the purchaser's attention in a manner that few records since the heyday of the psychedelic era could match. Having thrown original keyboard player Tony Kaye overboard early in the sessions – principally over his refusal to accept the need for the Moog synthesizer in lieu of his preferred Hammond organ – the band welcomed Rick Wakeman into its ranks. His use of the Moog, among other instruments, coupled with an overall bolder and more aggressive style of playing, opened the way for a harder, hotter sound by the group as a whole; bassist Chris Squire sounds like he's got his amp turned up to "12," and Steve Howe's electric guitars are not far behind, although the group also displayed subtlety where it was needed. The opening minute of "Roundabout," the album opener – and the basis for the edited single that would reach number 13 on the Billboard charts and get the group onto AM radio in a way that most other prog rock outfits could only look upon with envy – was dominated by Howe's acoustic guitar and Bill Bruford‘s drums, and only in the middle section did the band show some of what they could do with serious amperage. Elsewhere on the record, as on "South Side of the Sky," they would sound as though they were ready to leave the ground (and the planet), between the volume and intensity of their playing. "Long Distance Runaround," which also served as the B-side of the single, was probably the most accessible track here apart from "Roundabout," but they were both ambitious enough to carry most listeners on to the heavier sides at the core of this long player. The solo tracks by the members were actually a necessity: they needed to get Fragile out in a hurry to cover the cost of the keyboards that Wakeman had added to the group's sonic arsenal. But they ended up being more than filler. Each member, in effect, took a "bow" in mostly fairly serious settings, and Squire's "The Fish" and Howe's "Mood For a Day" pointed directly to future, more substantial projects as well as taking on a life of their own on-stage. If not exactly their peak, Fragile was as perfect a record as the group would ever make, and just as flawless in its timing as its content.

Tracklist:

01. Roundabout
02. Cans And Brahms
03. We Have Heaven
04. South Side Of The Sky
05. Five Per Cent For Nothing
06. Long Distance Runaround
07. The Fish (Schindleria Praematurus)
08. Mood For A Day
09. Heart Of The Sunrise
10. America [Bonus Track]

Recorded in September 1971 at Advision Studios, London.
5.1 Remix Produced, Engineered & Mixed by Tim Weidner.
5.1 & Stereo Mastering by Steve Hall at FutureDisc.

foobar2000 1.6.6 / Dynamic Range Meter 1.1.1

––––––––––––––––––––––––––––––––––––––––
Analyzed: YES / Fragile
––––––––––––––––––––––––––––––––––––––––

DR Peak RMS Duration Track
––––––––––––––––––––––––––––––––––––––––
DR12 -2.06 dB -20.31 dB 8:36 01-ROUNDABOUT
DR10 -4.53 dB -20.71 dB 1:43 02-CANS AND BRAHMS
DR10 -3.86 dB -17.49 dB 1:29 03-WE HAVE HEAVEN
DR11 -3.58 dB -19.43 dB 8:10 04-SOUTH SIDE OF THE SKY
DR13 -4.53 dB -20.58 dB 0:37 05-FIVE PER CENT FOR NOTHING
DR10 -4.04 dB -19.42 dB 3:31 06-LONG DISTANCE RUNAROUND
DR10 -3.54 dB -16.97 dB 2:42 07-THE FISH(SCHINDLERIA PRAEMATURUS)
DR13 -8.45 dB -28.13 dB 3:03 08-MOOD FOR A DAY
DR13 -2.71 dB -21.42 dB 11:32 09-HEART OF THE SUNRISE
DR10 -3.66 dB -16.80 dB 10:34 10-AMERICA
––––––––––––––––––––––––––––––––––––––––

Number of tracks: 10
Official DR value: DR11

Samplerate: 2822400 Hz / PCM Samplerate: 176400 Hz
Channels: 6
Bits per sample: 1
Bitrate: 16934 kbps
Codec: DST64
================================================================================

––––––––––––––––––––––––––––––––––––––––
Analyzed: YES / Fragile
––––––––––––––––––––––––––––––––––––––––

DR Peak RMS Duration Track
––––––––––––––––––––––––––––––––––––––––
DR9 -4.37 dB -16.08 dB 8:36 01-ROUNDABOUT
DR10 -4.66 dB -18.09 dB 1:43 02-CANS AND BRAHMS
DR9 -4.62 dB -15.37 dB 1:29 03-WE HAVE HEAVEN
DR10 -4.23 dB -16.98 dB 8:10 04-SOUTH SIDE OF THE SKY
DR11 -4.61 dB -17.95 dB 0:37 05-FIVE PER CENT FOR NOTHING
DR10 -4.44 dB -17.29 dB 3:31 06-LONG DISTANCE RUNAROUND
DR10 -4.58 dB -17.08 dB 2:42 07-THE FISH(SCHINDLERIA PRAEMATURUS)
DR12 -5.77 dB -22.06 dB 3:03 08-MOOD FOR A DAY
DR9 -4.38 dB -17.28 dB 11:32 09-HEART OF THE SUNRISE
DR8 -4.35 dB -14.61 dB 10:34 10-AMERICA
––––––––––––––––––––––––––––––––––––––––

Number of tracks: 10
Official DR value: DR10

Samplerate: 2822400 Hz / PCM Samplerate: 176400 Hz
Channels: 2
Bits per sample: 1
Bitrate: 5645 kbps
Codec: DST64


Thanks to bambasm!
Uncompressed SACD ISO size > 3,59 GB
>