Yoshio Kimura & Enkakurabu - Showa No Meikyoku Collection, Vol. 1 (2017) PS3 ISO + DSD64 + Hi-Res FLAC

Posted By: HDAtall
Yoshio Kimura & Enkakurabu - Showa No Meikyoku Collection, Vol. 1 (2017) PS3 ISO + DSD64 + Hi-Res FLAC

Yoshio Kimura & Enkakurabu - Showa No Meikyoku Collection, Vol. 1 (2017)
PS3 Rip | SACD ISO | DST64 2.0 > 1-bit/2.8224 MHz | 42:14 minutes | Scans included | 737 MB
or DSD64 Stereo (from SACD-ISO to Tracks.dsf) > 1-bit/2.8224 MHz | Scans included | 1,08 GB
or FLAC (carefully converted & encoded to tracks) 24bit/44,1 kHz | Scans included | 525 MB
New Century Workshop # NCCRYK 20817

Released 20 years after death of the virtuoso Japanese guitarist, Yoshio Kimura, “Yoshio Kimura's Guitar Enka: Showa No Meikyoku masterpiece collection”, is a collection of familiar tunes performed by Yoshio Kinuma and Enka Club. This is the first volume of double set.

Tracklist:

01. 兄弟仁義 / Kyoudai Jingi
02. ああ上野駅 / Aa Ueno Eki
03. 男船 / Otoko Sen
04. 女のみち / Onna No Michi
05. 北国の春 / Kitaguni No Haru
06. くちなしの花 / Kuchinashi No Hana
07. 奥飛騨慕情 / Oku Hida Bojou
08. 津軽平野 / Tsugaruheiya
09. なみだ恋 / Namidagoi
10. おやじの海 / Oyaji No Umi
11. 夢追い酒 / Yume Oi Sake
12. 長良川艶歌 / Nagaragawa Tsuya Uta
13. 祝い船 / Iwai Sen
14. 風雪ながれ旅 / Fuusetsu Na Gare Tabi

foobar2000 1.6.5 / Dynamic Range Meter 1.1.1

––––––––––––––––––––––––––––––––––––––––
Analyzed: Yoshio Kimura & Enkakurabu / Showa No Meikyoku Collection Vol.1
––––––––––––––––––––––––––––––––––––––––

DR Peak RMS Duration Track
––––––––––––––––––––––––––––––––––––––––
DR12 -5.20 dB -19.83 dB 3:04 01-Kyoudai Jingi
DR12 -4.99 dB -19.99 dB 2:47 02-Aa Ueno Eki
DR13 -5.39 dB -20.76 dB 3:09 03-Otoko Sen
DR13 -5.19 dB -20.40 dB 2:53 04-Onna No Michi
DR13 -5.45 dB -20.28 dB 3:57 05-Kitaguni No Haru
DR13 -5.00 dB -20.36 dB 2:39 06-Kuchinashi No Hana
DR13 -5.42 dB -21.21 dB 3:19 07-Oku Hida Bojou
DR13 -5.38 dB -20.07 dB 2:50 08-Tsugaruheiya
DR12 -5.38 dB -19.97 dB 2:39 09-Namidagoi
DR13 -5.34 dB -20.49 dB 2:46 10-Oyaji No Umi
DR13 -5.41 dB -20.31 dB 2:38 11-Yume Oi Sake
DR12 -5.43 dB -19.68 dB 3:28 12-Nagaragawa Tsuya Uta
DR13 -5.33 dB -20.37 dB 2:42 13-Iwai Sen
DR12 -5.19 dB -20.30 dB 3:21 14-Fuusetsu Na Gare Tabi
––––––––––––––––––––––––––––––––––––––––

Number of tracks: 14
Official DR value: DR13

Samplerate: 2822400 Hz / PCM Samplerate: 176400 Hz
Channels: 2
Bits per sample: 1
Bitrate: 5645 kbps
Codec: DST64


Thanks to the Original ripper!
Uncompressed SACD ISO size > 654 MB
>