Tags
Language
Tags

Yumi Zouma - Present Tense (2022) [Official Digital Download 24/44-48]

Posted By: delpotro
Yumi Zouma - Present Tense (2022) [Official Digital Download 24/44-48]

Yumi Zouma - Present Tense (2022)
FLAC (tracks) 24-bit/44,1-48 kHz | Front Cover | Time - 34:35 minutes | 397 MB
Indie Pop, Drampop, Female Vocal | Label: Polyvinyl Records, Official Digital Download

Yumi Zouma’s Josh Burgess likens the band’s songwriting process to gardening, “Someone brings in a seed and through collaboration, it grows into a song that is vastly different from its original form.” Like any garden, this one requires dedicated tending, a practice that seems rather inconvenient if not straight-up difficult, considering the fact that the four members live in disparate parts of the world – calling New York, London, and New Zealand home – but long-distance has always been a feature of their songwriting process, not a bug. Their new album, Present Tense, is the product of those efforts, a work Christie Simpson describes as “a gallery wall displaying these different moments in each of our lives. A process of curation, revisiting the past and making it relevant to the present.”

You might assume that while some artists have struggled to rethink their processes during a pandemic, Yumi Zouma would be perfectly suited to the COVID-19 lockdown, but the opposite proved to be true. Without looming tour dates driving them to release new music, the prolific band found themselves at a standstill. So they set a date. By September 1st, 2021, the album needed to be finished, regardless of whether they’d be able to tour it or even meet to record together. What began in fits and starts became a committed practice again as Yumi Zouma dug through demos from as early as 2018 to collaborate on and make relevant to the peculiar moment in time the band, and world, was experiencing, memorialized on album opener “Give It Hell.”

Remote and in-person sessions in studios in Wellington, Florence, New York, Los Angeles, and London all played a role, and Yumi Zouma brought in new collaborators from different disciplines to broaden their sound. “This is our fourth album, so we wanted to pivot slightly, create more extreme versions of songs,” Charlie Ryder says. “Working with other artists helped with that, and took us far outside of our normal comfort zone.” You can hear the impulse on “In The Eyes Of Our Love,” a song that’s seemingly twice as fast as any prior release, and closer to the classic rock of Dire Straits than the dream pop aesthetics that the band has built their career on so far. Olivia Campion’s drums crash in hard from the outset, sending the accompanying band into a revelry that only breaks upon arriving at the first bridge, when Simpson sings: “But we won’t lose sight of what we said/ I'll sing from the dirt instead.”

There’s a defiance heard throughout Present Tense, a refusal to bend to what might seem fated, communicated not only through lyrics but in the boldness of these arrangements, metamorphosing between tracks without ever losing momentum. Two years away from the road gave Yumi Zouma a new appreciation for the friendship they’ve sustained and the opportunity an abundance of time off-cycle offered. Dedicated to an embattled past, Present Tense is the band’s offering to a tenuous future.“To 2020, and the memory of all that was lost,” they write in the album’s liner notes. “Kia Kaha.”

Tracklist:
1. Give It Hell (03:24)
2. Mona Lisa (03:33)
3. If I Had The Heart For Chasing (03:28)
4. Where The Light Used To Lay (03:36)
5. Razorblade (02:54)
6. In The Eyes Of Our Love (03:28)
7. Of Me and You (02:57)
8. Honestly, It's Fine (03:29)
9. Haunt (03:48)
10. Astral Projection (03:52)

foobar2000 1.4.1 / Dynamic Range Meter 1.1.1
log date: 2022-03-17 14:04:00

––––––––––––––––––––––––––––––––––––––––
Analyzed: Yumi Zouma / Present Tense
––––––––––––––––––––––––––––––––––––––––

DR Peak RMS Duration Track
––––––––––––––––––––––––––––––––––––––––
DR6 -0.10 dB -8.36 dB 3:34 02-Mona Lisa
DR5 -0.10 dB -8.14 dB 3:29 03-If I Had The Heart For Chasing
DR6 -0.10 dB -7.78 dB 3:36 04-Where The Light Used to Lay
DR6 -0.10 dB -8.40 dB 2:55 05-Razorblade
DR4 -0.10 dB -6.32 dB 3:29 06-In the Eyes of Our Love
DR5 -0.10 dB -7.11 dB 2:57 07-Of Me And You
DR8 -0.10 dB -10.16 dB 3:29 08-Honestly, It's Fine
DR5 -0.10 dB -6.76 dB 3:49 09-Haunt
DR5 -0.10 dB -7.12 dB 3:53 10-Astral Projection
––––––––––––––––––––––––––––––––––––––––

Number of tracks: 9
Official DR value: DR6

Samplerate: 44100 Hz
Channels: 2
Bits per sample: 24
Bitrate: 1557 kbps
Codec: FLAC
================================================================================

––––––––––––––––––––––––––––––––––––––––
Statistics for: 01-Give It Hell
Number of samples: 9837887
Duration: 3:25
––––––––––––––––––––––––––––––––––––––––

Left Right

Peak Value: -0.10 dB –- -0.10 dB
Avg RMS: -7.80 dB –- -7.12 dB
DR channel: 5.47 dB –- 4.79 dB
––––––––––––––––––––––––––––––––––––––––

Official DR Value: DR5

Samplerate: 48000 Hz
Channels: 2
Bits per sample: 24
Bitrate: 1735 kbps
Codec: FLAC
================================================================================

Thanks to the Original customer!