Zubin Mehta, Los Angeles Philharmonic - Holst: The Planets, John Williams: Star Wars Suite (1971/1978) PS3 ISO + DSD64 + Hi-Res

Posted By: HDAtall
Zubin Mehta, Los Angeles Philharmonic - Holst: The Planets, John Williams: Star Wars Suite (1971/1978) PS3 ISO + DSD64 + Hi-Res

Zubin Mehta, Los Angeles Philharmonic - Holst: The Planets / John Williams: Star Wars Suite (1971/1978) [Japanese SHM-SACD 2012]
PS3 Rip | SACD ISO | DSD64 2.0 > 1-bit/2.8224 MHz | 79:47 minutes | Scans included | 2,22 GB
or DSD64 2.0 (from SACD-ISO to Tracks.dsf) > 1-bit/2.8224 MHz | Scans included | 939 MB
or FLAC (carefully converted & encoded to tracks) 24bit/96 kHz | Scans included | 1,73 GB
Uses 2012 DSD master based on the Decca's original analog tape

Written by Gustav Holst over a three-year period in 1914, The Planets is a true masterpiece of classical music and features seven movements based on the planets in our own solar system excluding Pluto and the Earth itself. This world renowned piece, that has always overshadowed Holst’s other famous works of music, is conducted by Zubin Mehta and performed by the Los Angeles Philharmonic Orchestra. Also, the disc includes Star Wars suite wriiten by John Williams.

Tracklist:

01. THE PLANETS: 1. MARS
02. THE PLANETS: 2. VENUS
03. THE PLANETS: 3. MERCURY
04. THE PLANETS: 4. JUPITER
05. THE PLANETS: 5. SATURN
06. THE PLANETS: 6. URANUS
07. THE PLANETS: 7. NEPTUNE
08. STAR WARS: 1. MAIN TITLE
09. STAR WARS: 2. PRINCESS LEIA'S THEME
10. STAR WARS: 3. THE LITTLE PEOPLE
11. STAR WARS: THE CANTINA BAND
12. STAR WARS: 4. THE BATTLE
13. STAR WARS: 5. THE THRONE ROOM AND END TITLE

Personnel
Los Angeles Philharmonic, Conducted by Zubin Mehta
Women's voices of the Los Angeles Master Chorale

foobar2000 1.6.5 / Dynamic Range Meter 1.1.1

––––––––––––––––––––––––––––––––––––––––
Analyzed: ZUBIN MEHTA / HOLST: THE PLANETS / J. WILLIAMS: STAR WARS
––––––––––––––––––––––––––––––––––––––––

DR Peak RMS Duration Track
––––––––––––––––––––––––––––––––––––––––
DR12 -7.78 dB -23.51 dB 7:14 01-1. MARS [THE PLANETS]
DR15 -14.09 dB -36.71 dB 8:07 02-2. VENUS [THE PLANETS]
DR14 -13.56 dB -35.95 dB 3:50 03-3. MERCURY [THE PLANETS]
DR11 -7.59 dB -24.76 dB 7:52 04-4. JUPITER [THE PLANETS]
DR13 -9.89 dB -30.68 dB 9:55 05-5. SATURN [THE PLANETS]
DR12 -8.46 dB -25.95 dB 5:39 06-6. URANUS [THE PLANETS]
DR12 -24.15 dB -41.37 dB 7:10 07-7. NEPTUNE [THE PLANETS]
DR12 -7.75 dB -23.31 dB 5:10 08-1. MAIN TITLE [STAR WARS]
DR15 -8.66 dB -31.23 dB 4:30 09-2. PRINCESS LEIA'S THEME [STAR WARS]
DR15 -7.47 dB -34.73 dB 4:43 10-3. THE LITTLE PEOPLE [STAR WARS]
DR14 -10.01 dB -28.11 dB 2:38 11-THE CANTINA BAND [STAR WARS]
DR13 -8.27 dB -25.58 dB 5:41 12-4. THE BATTLE [STAR WARS]
DR13 -6.45 dB -23.83 dB 7:17 13-5. THE THRONE ROOM AND END TITLE [STAR WARS]
––––––––––––––––––––––––––––––––––––––––

Number of tracks: 13
Official DR value: DR13

Samplerate: 2822400 Hz / PCM Samplerate: 88200 Hz
Channels: 2
Bits per sample: 24
Bitrate: 5645 kbps
Codec: DSD64


Thanks to jasondonovan!
Uncompressed SACD ISO size > 3,19 GB
>