Tags
Language
Tags

Zucchero 'Sugar' Fornaciari - The SACD Reissue Series 2004 (1983-2001) 10x MCH PS3 ISO + Hi-Res FLAC

Posted By: HDAtall
Zucchero 'Sugar' Fornaciari - The SACD Reissue Series 2004 (1983-2001) 10x MCH PS3 ISO + Hi-Res FLAC

Zucchero 'Sugar' Fornaciari - The SACD Reissue Series 2004 (1983-2001)
PS3 Rip | 10x SACD ISO | DST64 2.0 & 5.1 > 1-bit/2.8224 MHz | 449:02 minutes | Scans included | 32,53 GB
or FLAC 2.0 Stereo (converted with foobar2000 to tracks) 24bit/88,2 kHz | Full Scans included | 9,71 GB
The collection includes 10 Remastered albums & features Stereo and Multichannel Surround Sound

Adelmo Fornaciari, more commonly known by his stage name Zucchero Fornaciari or simply Zucchero, is an Italian rock singer and Order of Merit of the Italian Republic. His music is largely inspired by gospel, soul and rock music, and alternates between ballads and more rhythmic boogie-like pieces. Zucchero's voice is gritty and textured, but he sings with a great sensitivity and lyricism, and these same qualities are mirrored in his songwriting. By blending blues, pop, and adult contemporary, Zucchero's music can be quite affecting. He is credited as the "father of Italian blues", introducing blues to the big stage in Italy. Zucchero is one of the few European blues artists who still enjoy great international success.

Adelmo Fornaciari is the real name of the talented Italian musician more commonly known to the world by his nickname Zucchero ("Sugar"), given to him by an elementary school teacher. He began playing the guitar in his home province of Reggio Emilia, focusing on music in the blues/R&B mold. As a teenager in the early '70s, he founded a local band called Le Nuove Luci. He formed another group, Sugar and Candies, in 1978, and began writing as well – Italian pop songs for other artists, and more blues-oriented material for himself.

Zucchero 'Sugar' Fornaciari - The SACD Reissue Series 2004 (1983-2001) 10x MCH PS3 ISO + Hi-Res FLAC

Zucchero garnered a great deal of success in 1981 when he won the Castrocaro Festival, which led to performances at the 1982 and 1983 Sanremo Festivals. Increased exposure gave him a chance to release his own solo album, 1983's Un Po' Di Zucchero. His song "Donne", performed with the newly formed Zucchero & the Randy Jackson Band, caused a sensation at the 1985 Sanremo Festival; even though "Donne" didn't win, it did become a hit. This introduced the Zucchero blend of Italian pop and electric blues to a larger audience. During the late '80s and early '90s, he became one of the best-selling artists in Italy and a favorite all over Europe. He performed at 1994's Woodstock Festival, and appeared with Eric Clapton, Buddy Guy, the Scorpions, and Luciano Pavarotti; still, his worldwide audience remained limited. In the new millennium, Zucchero's success continued as a performer and an award-winning songwriter.


Zucchero 'Sugar' Fornaciari - The SACD Reissue Series 2004 (1983-2001) 10x MCH PS3 ISO + Hi-Res FLAC

Zucchero Fornaciari - Un Po' di Zucchero (1983) [Reissue 2004]
PS3 Rip | SACD ISO | DST64 2.0 & 5.1 > 1-bit/2.8224 MHz | 34:20 minutes | Full Scans included | 2,5 GB
or FLAC 2.0 Stereo (converted with foobar2000 to tracks) 24bit/88,2 kHz | Full Scans included | 744 MB
Features Stereo and Multichannel Surround Sound

Tracklist:

01. Una Notte Che Vola Via
02. Non Aver Paura
03. Tempo Ne Avrai
04. Fuoco Del Mattino
05. Che Destino Sei
06. Nuvola
07. Come L'Aria
08. Perche' Sei Bella
09. Sandra
10. Stiamo Insieme

foobar2000 1.5.4 / Dynamic Range Meter 1.1.15

––––––––––––––––––––––––––––––––––––––––
Analyzed: Zucchero Sugar Fornaciari / Un Po' di Zucchero
––––––––––––––––––––––––––––––––––––––––

DR Peak RMS Duration Track
––––––––––––––––––––––––––––––––––––––––
DR11 -5.45 dB -19.89 dB 4:09 01-Una Notte Che Vola Via
DR11 -5.29 dB -20.30 dB 2:32 02-Non Aver Paura
DR10 -5.27 dB -19.36 dB 3:59 03-Tempo Ne Avrai
DR10 -5.37 dB -19.92 dB 3:42 04-Fuoco Del Mattino
DR11 -5.19 dB -20.07 dB 3:18 05-Che Destino Sei
DR11 -5.17 dB -19.02 dB 3:05 06-Nuvola
DR10 -5.27 dB -18.85 dB 3:11 07-Come L'Aria
DR11 -4.93 dB -20.19 dB 4:04 08-Perche' Sei Bella
DR11 -5.15 dB -19.29 dB 2:42 09-Sandra
DR10 -5.23 dB -20.05 dB 3:37 10-Stiamo Insieme
––––––––––––––––––––––––––––––––––––––––

Number of tracks: 10
Official DR value: DR11

Samplerate: 2822400 Hz / PCM Samplerate: 176400 Hz
Channels: 6
Bits per sample: 1
Bitrate: 16934 kbps
Codec: DST64
================================================================================

––––––––––––––––––––––––––––––––––––––––
Analyzed: Zucchero Sugar Fornaciari / Un Po' di Zucchero
––––––––––––––––––––––––––––––––––––––––

DR Peak RMS Duration Track
––––––––––––––––––––––––––––––––––––––––
DR9 -5.15 dB -16.76 dB 4:09 01-Una Notte Che Vola Via
DR9 -5.19 dB -17.26 dB 2:32 02-Non Aver Paura
DR9 -5.06 dB -16.13 dB 3:59 03-Tempo Ne Avrai
DR8 -5.20 dB -16.77 dB 3:42 04-Fuoco Del Mattino
DR9 -5.17 dB -16.83 dB 3:18 05-Che Destino Sei
DR9 -4.98 dB -15.74 dB 3:05 06-Nuvola
DR9 -5.13 dB -15.60 dB 3:11 07-Come L'Aria
DR9 -4.99 dB -16.83 dB 4:04 08-Perche' Sei Bella
DR10 -5.10 dB -16.05 dB 2:42 09-Sandra
DR9 -5.20 dB -16.63 dB 3:37 10-Stiamo Insieme
––––––––––––––––––––––––––––––––––––––––

Number of tracks: 10
Official DR value: DR9

Samplerate: 2822400 Hz / PCM Samplerate: 176400 Hz
Channels: 2
Bits per sample: 1
Bitrate: 5645 kbps
Codec: DST64


Uncompressed SACD ISO size > 2,37 GB


Zucchero 'Sugar' Fornaciari - The SACD Reissue Series 2004 (1983-2001) 10x MCH PS3 ISO + Hi-Res FLAC

Zucchero Fornaciari - Zucchero & The Randy Jackson Band (1985) [Reissue 2004]
PS3 Rip | SACD ISO | DST64 2.0 & 5.1 > 1-bit/2.8224 MHz | 35:23 minutes | Full Scans included | 2,62 GB
or FLAC 2.0 Stereo (converted with foobar2000 to tracks) 24bit/88,2 kHz | Full Scans included | 796 MB
Features Stereo and Multichannel Surround Sound

Tracklist:

01. Donne
02. Stasera Se Un Uomo
03. Ti Faro' Morire
04. Per Una Delusione In Piu'
05. Tu Mi Piaci Come Questa Birra
06. Un Piccolo Aiuto
07. Jimmy Jimmy
08. Oh Stevie
09. Quasi Quasi

foobar2000 1.5.4 / Dynamic Range Meter 1.1.1

––––––––––––––––––––––––––––––––––––––––
Analyzed: Zucchero Sugar Fornaciari / Zucchero & The Randy Jackson Band
––––––––––––––––––––––––––––––––––––––––

DR Peak RMS Duration Track
––––––––––––––––––––––––––––––––––––––––
DR11 -5.80 dB -20.88 dB 3:36 01-Donne
DR11 -5.97 dB -21.04 dB 4:29 02-Stasera Se Un Uomo
DR11 -5.53 dB -19.76 dB 4:01 03-Ti Faro' Morire
DR12 -5.43 dB -20.61 dB 4:05 04-Per Una Delusione In Piu'
DR12 -5.65 dB -20.31 dB 4:00 05-Tu Mi Piaci Come Questa Birra
DR12 -7.18 dB -25.15 dB 3:30 06-Un Piccolo Aiuto
DR11 -5.79 dB -20.50 dB 4:07 07-Jimmy Jimmy
DR10 -5.74 dB -19.63 dB 3:44 08-Oh Stevie
DR10 -5.67 dB -19.34 dB 3:51 09-Quasi Quasi
––––––––––––––––––––––––––––––––––––––––

Number of tracks: 9
Official DR value: DR11

Samplerate: 2822400 Hz / PCM Samplerate: 176400 Hz
Channels: 6
Bits per sample: 1
Bitrate: 16934 kbps
Codec: DST64
================================================================================

––––––––––––––––––––––––––––––––––––––––
Analyzed: Zucchero Sugar Fornaciari / Zucchero & The Randy Jackson Band
––––––––––––––––––––––––––––––––––––––––

DR Peak RMS Duration Track
––––––––––––––––––––––––––––––––––––––––
DR10 -4.89 dB -16.95 dB 3:36 01-Donne
DR10 -5.48 dB -17.07 dB 4:29 02-Stasera Se Un Uomo
DR9 -5.02 dB -15.82 dB 4:01 03-Ti Faro' Morire
DR10 -4.82 dB -16.67 dB 4:05 04-Per Una Delusione In Piu'
DR10 -4.97 dB -16.41 dB 4:00 05-Tu Mi Piaci Come Questa Birra
DR12 -6.43 dB -21.41 dB 3:30 06-Un Piccolo Aiuto
DR10 -5.19 dB -16.56 dB 4:07 07-Jimmy Jimmy
DR9 -5.08 dB -15.61 dB 3:44 08-Oh Stevie
DR9 -5.12 dB -15.52 dB 3:51 09-Quasi Quasi
––––––––––––––––––––––––––––––––––––––––

Number of tracks: 9
Official DR value: DR10

Samplerate: 2822400 Hz / PCM Samplerate: 176400 Hz
Channels: 2
Bits per sample: 1
Bitrate: 5645 kbps
Codec: DST64


Uncompressed SACD ISO size > 2,48 GB


Zucchero 'Sugar' Fornaciari - The SACD Reissue Series 2004 (1983-2001) 10x MCH PS3 ISO + Hi-Res FLAC

Zucchero Fornaciari - Rispetto (1986) [Reissue 2004]
PS3 Rip | SACD ISO | DST64 2.0 & 5.1 > 1-bit/2.8224 MHz | 39:54 minutes | Full Scans included | 2,93 GB
or FLAC 2.0 Stereo (converted with foobar2000 to tracks) 24bit/88,2 kHz | Full Scans included | 889 MB
Features Stereo and Multichannel Surround Sound

Tracklist:

01. Introduction
02. Rispetto
03. Come il Sole all'Improvviso
04. Tra Uomo e Donna
05. Nella Casa C'era
06. Una Ragione per Vivere
07. Solo Seduto Sulla Panchina del Porto Guardo le Navi Partir
08. Torna a Casa
09. Nuovo Meraviglioso Amico
10. Canzone Triste
11. No No

foobar2000 1.5.4 / Dynamic Range Meter 1.1.1

––––––––––––––––––––––––––––––––––––––––
Analyzed: Zucchero Sugar Fornaciari / Rispetto
––––––––––––––––––––––––––––––––––––––––

DR Peak RMS Duration Track
––––––––––––––––––––––––––––––––––––––––
DR7 -5.63 dB -21.84 dB 0:35 01-Introduction
DR9 -5.22 dB -17.57 dB 5:04 02-Rispetto
DR9 -5.94 dB -18.41 dB 3:56 03-Come il Sole all'Improvviso
DR8 -5.46 dB -18.29 dB 4:20 04-Tra Uomo e Donna
DR10 -5.69 dB -20.88 dB 5:50 05-Nella Casa C'era
DR8 -6.61 dB -21.06 dB 0:53 06-Una Ragione per Vivere
DR9 -5.60 dB -18.56 dB 3:49 07-Solo Seduto Sulla Panchina del Porto Guardo le Navi Partir
DR8 -5.85 dB -17.76 dB 3:39 08-Torna a Casa
DR8 -5.55 dB -18.57 dB 4:08 09-Nuovo Meraviglioso Amico
DR8 -5.34 dB -16.57 dB 3:59 10-Canzone Triste
DR8 -5.56 dB -16.51 dB 3:42 11-No No
––––––––––––––––––––––––––––––––––––––––

Number of tracks: 11
Official DR value: DR8

Samplerate: 2822400 Hz / PCM Samplerate: 176400 Hz
Channels: 6
Bits per sample: 1
Bitrate: 16934 kbps
Codec: DST64
================================================================================

––––––––––––––––––––––––––––––––––––––––
Analyzed: Zucchero Sugar Fornaciari / Rispetto
––––––––––––––––––––––––––––––––––––––––

DR Peak RMS Duration Track
––––––––––––––––––––––––––––––––––––––––
DR6 -5.14 dB -17.35 dB 0:33 01-Introduction
DR6 -4.63 dB -12.95 dB 5:04 02-Rispetto
DR7 -5.18 dB -13.80 dB 3:57 03-Come il Sole all'Improvviso
DR6 -4.86 dB -13.57 dB 4:19 04-Tra Uomo e Donna
DR9 -5.13 dB -16.29 dB 5:50 05-Nella Casa C'era
DR8 -5.36 dB -16.56 dB 0:54 06-Una Ragione per Vivere
DR7 -4.93 dB -13.90 dB 3:49 07-Solo Seduto Sulla Panchina del Porto Guardo le Navi Partir
DR6 -4.99 dB -13.02 dB 3:39 08-Torna a Casa
DR6 -5.11 dB -13.92 dB 4:08 09-Nuovo Meraviglioso Amico
DR5 -4.88 dB -11.89 dB 3:59 10-Canzone Triste
DR6 -4.89 dB -11.78 dB 3:42 11-No No
––––––––––––––––––––––––––––––––––––––––

Number of tracks: 11
Official DR value: DR6

Samplerate: 2822400 Hz / PCM Samplerate: 176400 Hz
Channels: 2
Bits per sample: 1
Bitrate: 5645 kbps
Codec: DST64


Uncompressed SACD ISO size > 2,77 GB


Zucchero 'Sugar' Fornaciari - The SACD Reissue Series 2004 (1983-2001) 10x MCH PS3 ISO + Hi-Res FLAC

Zucchero 'Sugar' Fornaciari - Blue's (1987) [Reissue 2004]
PS3 Rip | SACD ISO | DST64 2.0 & 5.1 > 1-bit/2.8224 MHz | 47:21 minutes | Full Scans included | 3,36 GB
or FLAC 2.0 Stereo (converted with foobar2000 to tracks) 24bit/88,2 kHz | Full Scans included | 1,02 GB
Features Stereo and Multichannel Surround Sound


Tracklist:

01. Blue's Introduction
02. Con Le Mani
03. Pippo
04. Dune Mosse
05. Bambino Io,Bambino Tu
06. Non Ti Sopporto Piu'
07. Senza Una Donna
08. Into The Groove
09. Hey Man
10. Solo Una Sana
11. Hai Scelto Me
12. Dune Mosse

foobar2000 1.5.4 / Dynamic Range Meter 1.1.1

––––––––––––––––––––––––––––––––––––––––
Analyzed: Zucchero Sugar Fornaciari / Blue's
––––––––––––––––––––––––––––––––––––––––

DR Peak RMS Duration Track
––––––––––––––––––––––––––––––––––––––––
DR11 -7.36 dB -23.23 dB 0:14 01-Blue's Introduction
DR8 -7.27 dB -17.50 dB 4:43 02-Con Le Mani
DR8 -7.26 dB -18.27 dB 4:45 03-Pippo
DR10 -7.23 dB -20.60 dB 5:37 04-Dune Mosse
DR11 -7.16 dB -20.52 dB 5:01 05-Bambino Io,Bambino Tu
DR8 -7.13 dB -17.83 dB 4:40 06-Non Ti Sopporto Piu'
DR8 -7.03 dB -17.45 dB 4:27 07-Senza Una Donna
DR12 -7.58 dB -23.41 dB 0:24 08-Into The Groove
DR9 -7.24 dB -19.52 dB 4:31 09-Hey Man
DR8 -7.02 dB -16.89 dB 4:52 10-Solo Una Sana
DR11 -7.16 dB -24.87 dB 2:27 11-Hai Scelto Me
DR11 -7.39 dB -22.13 dB 5:40 12-Dune Mosse
––––––––––––––––––––––––––––––––––––––––

Number of tracks: 12
Official DR value: DR10

Samplerate: 2822400 Hz / PCM Samplerate: 176400 Hz
Channels: 6
Bits per sample: 1
Bitrate: 16934 kbps
Codec: DST64
================================================================================

––––––––––––––––––––––––––––––––––––––––
Analyzed: Zucchero Sugar Fornaciari / Blue's
––––––––––––––––––––––––––––––––––––––––

DR Peak RMS Duration Track
––––––––––––––––––––––––––––––––––––––––
DR11 -5.70 dB -21.27 dB 0:14 01-Blue's Introduction
DR7 -5.35 dB -13.79 dB 4:43 02-Con Le Mani
DR7 -5.46 dB -14.51 dB 4:44 03-Pippo
DR9 -5.58 dB -17.39 dB 5:37 04-Dune Mosse
DR10 -5.46 dB -17.29 dB 5:02 05-Bambino Io,Bambino Tu
DR7 -5.48 dB -14.52 dB 4:40 06-Non Ti Sopporto Piu'
DR7 -5.47 dB -14.25 dB 4:27 07-Senza Una Donna
DR12 -5.71 dB -20.50 dB 0:24 08-Into The Groove
DR8 -5.49 dB -16.28 dB 4:31 09-Hey Man
DR7 -5.36 dB -13.67 dB 4:52 10-Solo Una Sana
DR10 -5.25 dB -21.90 dB 2:27 11-Hai Scelto Me
DR10 -5.65 dB -18.81 dB 5:41 12-Dune Mosse
––––––––––––––––––––––––––––––––––––––––

Number of tracks: 12
Official DR value: DR9

Samplerate: 2822400 Hz / PCM Samplerate: 176400 Hz
Channels: 2
Bits per sample: 1
Bitrate: 5645 kbps
Codec: DST64


Uncompressed SACD ISO size > 3,18 GB


Zucchero 'Sugar' Fornaciari - The SACD Reissue Series 2004 (1983-2001) 10x MCH PS3 ISO + Hi-Res FLAC

Zucchero 'Sugar' Fornaciari - Oro Incenso & Birra (1989) [Reissue 2004]
PS3 Rip | SACD ISO | DST64 2.0 & 5.1 > 1-bit/2.8224 MHz | 42:18 minutes | Full Scans included | 3,05 GB
or FLAC 2.0 Stereo (converted with foobar2000 to tracks) 24bit/88,2 kHz | Full Scans included | 941 MB
Features Stereo and Multichannel Surround Sound

Tracklist:

01. Overdose d'amore
02. Nice (Nietzsche) che dice
03. Il mare
04. Madre dolcissima
05. Diavolo in me
06. Iruben Me
07. A Wonderful World
08. Diamante
09. Libera l'amore

foobar2000 1.5.4 / Dynamic Range Meter 1.1.1

––––––––––––––––––––––––––––––––––––––––
Analyzed: Zucchero Sugar Fornaciari / Oro Incenso & Birra
––––––––––––––––––––––––––––––––––––––––

DR Peak RMS Duration Track
––––––––––––––––––––––––––––––––––––––––
DR12 -5.69 dB -20.59 dB 5:22 01-Overdose d'amore
DR12 -5.77 dB -20.32 dB 3:19 02-Nice (Nietzsche) che dice
DR11 -5.73 dB -19.05 dB 3:56 03-Il mare
DR10 -5.76 dB -20.05 dB 7:18 04-Madre dolcissima
DR12 -5.73 dB -20.16 dB 4:03 05-Diavolo in me
DR11 -5.91 dB -22.82 dB 5:50 06-Iruben Me
DR11 -5.82 dB -19.96 dB 4:33 07-A Wonderful World
DR11 -5.99 dB -21.00 dB 5:45 08-Diamante
DR10 -7.11 dB -23.40 dB 2:11 09-Libera l'amore
––––––––––––––––––––––––––––––––––––––––

Number of tracks: 9
Official DR value: DR11

Samplerate: 2822400 Hz / PCM Samplerate: 176400 Hz
Channels: 6
Bits per sample: 1
Bitrate: 16934 kbps
Codec: DST64
================================================================================

––––––––––––––––––––––––––––––––––––––––
Analyzed: Zucchero Sugar Fornaciari / Oro Incenso & Birra
––––––––––––––––––––––––––––––––––––––––

DR Peak RMS Duration Track
––––––––––––––––––––––––––––––––––––––––
DR10 -5.12 dB -17.91 dB 5:22 01-Overdose d'amore
DR10 -5.56 dB -17.60 dB 3:19 02-Nice (Nietzsche) che dice
DR10 -5.40 dB -16.34 dB 3:56 03-Il mare
DR9 -5.21 dB -17.34 dB 7:18 04-Madre dolcissima
DR10 -5.23 dB -17.48 dB 4:04 05-Diavolo in me
DR10 -5.41 dB -20.05 dB 5:49 06-Iruben Me
DR10 -5.48 dB -17.18 dB 4:33 07-A Wonderful World
DR10 -5.61 dB -18.24 dB 5:45 08-Diamante
DR10 -6.08 dB -20.91 dB 2:12 09-Libera l'amore
––––––––––––––––––––––––––––––––––––––––

Number of tracks: 9
Official DR value: DR10

Samplerate: 2822400 Hz / PCM Samplerate: 176400 Hz
Channels: 2
Bits per sample: 1
Bitrate: 5645 kbps
Codec: DST64

Uncompressed SACD ISO size > 2,88 GB


Zucchero 'Sugar' Fornaciari - The SACD Reissue Series 2004 (1983-2001) 10x MCH PS3 ISO + Hi-Res FLAC

Zucchero 'Sugar' Fornaciari - Zucchero (1991) [Reissue 2004]
PS3 Rip | SACD ISO | DST64 2.0 & 5.1 > 1-bit/2.8224 MHz | 57:38 minutes | Full Scans included | 4,22 GB
or FLAC 2.0 Stereo (converted with foobar2000 to tracks) 24bit/88,2 kHz | Full Scans included | 1,25 GB
Features Stereo and Multichannel Surround Sound

This self-titled album alternates songs in Italian with songs in English, making the artist's music all the more diverse and accessible.

Tracklist:

01. Diamante
02. Wonderful World (feat. Eric Clapton)
03. Il Mare
04. Mama
05. Dunes of Mercy
06. Senza una Donna (feat. Paul Young)
07. You're Losing Me
08. Solo Una Sana
09. You've Chosen Me
10. Diavolo in Me
11. Overdose (D'Amore)
12. Nice (Nietzsche) Che Dice

foobar2000 1.5.4 / Dynamic Range Meter 1.1.1

––––––––––––––––––––––––––––––––––––––––
Analyzed: Zucchero Sugar Fornaciari / Zucchero
––––––––––––––––––––––––––––––––––––––––

DR Peak RMS Duration Track
––––––––––––––––––––––––––––––––––––––––
DR9 -5.00 dB -17.84 dB 5:51 01-Diamante English Version
DR9 -4.94 dB -16.66 dB 4:33 02-Wonderful World
DR10 -5.12 dB -17.36 dB 3:56 03-Il Mare
DR10 -5.26 dB -18.82 dB 7:19 04-Mama English Version
DR9 -5.41 dB -19.24 dB 5:38 05-Dunes of Mercy
DR9 -5.19 dB -17.03 dB 4:28 06-Senza una Donna English Version
DR10 -5.16 dB -20.84 dB 5:48 07-You're Losing Me
DR9 -5.07 dB -16.60 dB 4:52 08-Solo Una Sana
DR12 -5.66 dB -26.22 dB 2:31 09-You've Chosen Me
DR10 -4.84 dB -18.00 dB 4:03 10-Diavolo in Me
DR10 -5.22 dB -18.12 dB 5:16 11-Overdose (D'Amore)
DR10 -5.13 dB -17.59 dB 3:22 12-Nice (Nietzsche) Che Dice
––––––––––––––––––––––––––––––––––––––––

Number of tracks: 12
Official DR value: DR10

Samplerate: 2822400 Hz / PCM Samplerate: 176400 Hz
Channels: 6
Bits per sample: 1
Bitrate: 16934 kbps
Codec: DST64
================================================================================

––––––––––––––––––––––––––––––––––––––––
Analyzed: Zucchero Sugar Fornaciari / Zucchero
––––––––––––––––––––––––––––––––––––––––

DR Peak RMS Duration Track
––––––––––––––––––––––––––––––––––––––––
DR7 -4.85 dB -14.81 dB 5:50 01-Diamante English Version
DR7 -4.81 dB -13.59 dB 4:33 02-Wonderful World
DR8 -5.40 dB -14.26 dB 3:56 03-Il Mare
DR7 -5.39 dB -15.82 dB 7:19 04-Mama English Version
DR8 -5.42 dB -16.16 dB 5:38 05-Dunes of Mercy
DR7 -5.23 dB -13.99 dB 4:28 06-Senza una Donna English Version
DR8 -5.35 dB -17.79 dB 5:49 07-You're Losing Me
DR7 -5.12 dB -13.56 dB 4:52 08-Solo Una Sana
DR11 -6.07 dB -23.34 dB 2:31 09-You've Chosen Me
DR8 -5.18 dB -14.95 dB 4:03 10-Diavolo in Me
DR8 -5.52 dB -15.09 dB 5:16 11-Overdose (D'Amore)
DR8 -5.02 dB -14.50 dB 3:22 12-Nice (Nietzsche) Che Dice
––––––––––––––––––––––––––––––––––––––––

Number of tracks: 12
Official DR value: DR8

Samplerate: 2822400 Hz / PCM Samplerate: 176400 Hz
Channels: 2
Bits per sample: 1
Bitrate: 5645 kbps
Codec: DST64


Uncompressed SACD ISO size > 4,00 GB


Zucchero 'Sugar' Fornaciari - The SACD Reissue Series 2004 (1983-2001) 10x MCH PS3 ISO + Hi-Res FLAC

Zucchero 'Sugar' Fornaciari - Miserere (1992) [Reissue 2004]
PS3 Rip | SACD ISO | DST64 2.0 & 5.1 > 1-bit/2.8224 MHz | 48:41 minutes | Full Scans included | 3,55 GB
or FLAC 2.0 Stereo (converted with foobar2000 to tracks) 24bit/88,2 kHz | Full Scans included | 1,07 GB
Features Stereo and Multichannel Surround Sound

Tracklist:

01. Miserere Overture
02. L'Urlo
03. It's All Right
04. Il Pelo nell'Uovo
05. Miss Mary
06. Anna Solatia
07. Un'Orgia di Anime Perse
08. Pene
09. Povero Cristo
10. Ridammi il Sole
11. I Frati
12. Miserere

foobar2000 1.5.4 / Dynamic Range Meter 1.1.1

––––––––––––––––––––––––––––––––––––––––
Analyzed: Zucchero Sugar Fornaciari / MISERERE
––––––––––––––––––––––––––––––––––––––––

DR Peak RMS Duration Track
––––––––––––––––––––––––––––––––––––––––
DR10 -7.80 dB -23.68 dB 0:39 01-Miserere Overture
DR9 -5.09 dB -18.49 dB 3:21 02-L'Urlo
DR9 -5.02 dB -18.88 dB 5:27 03-It's All Right
DR8 -5.12 dB -17.99 dB 4:59 04-Il Pelo nell'Uovo
DR8 -5.25 dB -18.21 dB 4:26 05-Miss Mary
DR10 -8.24 dB -22.78 dB 3:47 06-Anna Solatia
DR9 -4.85 dB -17.42 dB 3:45 07-Un'Orgia di Anime Perse
DR7 -5.00 dB -17.27 dB 5:28 08-Pene
DR8 -5.14 dB -17.63 dB 3:45 09-Povero Cristo
DR8 -5.08 dB -17.04 dB 4:35 10-Ridammi il Sole
DR8 -5.21 dB -17.99 dB 3:36 11-I Frati
DR8 -5.07 dB -18.24 dB 4:52 12-Miserere
––––––––––––––––––––––––––––––––––––––––

Number of tracks: 12
Official DR value: DR9

Samplerate: 2822400 Hz / PCM Samplerate: 176400 Hz
Channels: 6
Bits per sample: 1
Bitrate: 16934 kbps
Codec: DST64
================================================================================

––––––––––––––––––––––––––––––––––––––––
Analyzed: Zucchero Sugar Fornaciari / MISERERE
––––––––––––––––––––––––––––––––––––––––

DR Peak RMS Duration Track
––––––––––––––––––––––––––––––––––––––––
DR9 -6.12 dB -19.19 dB 0:38 01-Miserere Overture
DR7 -4.96 dB -13.89 dB 3:21 02-L'Urlo
DR7 -5.33 dB -14.55 dB 5:27 03-It's All Right
DR6 -5.02 dB -13.55 dB 4:59 04-Il Pelo nell'Uovo
DR6 -5.33 dB -13.68 dB 4:26 05-Miss Mary
DR9 -5.85 dB -17.75 dB 3:47 06-Anna Solatia
DR7 -4.91 dB -13.01 dB 3:45 07-Un'Orgia di Anime Perse
DR5 -5.05 dB -12.88 dB 5:28 08-Pene
DR6 -5.19 dB -13.21 dB 3:45 09-Povero Cristo
DR6 -4.95 dB -12.63 dB 4:36 10-Ridammi il Sole
DR6 -5.37 dB -13.62 dB 3:36 11-I Frati
DR5 -5.27 dB -13.84 dB 4:53 12-Miserere
––––––––––––––––––––––––––––––––––––––––

Number of tracks: 12
Official DR value: DR7

Samplerate: 2822400 Hz / PCM Samplerate: 176400 Hz
Channels: 2
Bits per sample: 1
Bitrate: 5645 kbps
Codec: DST64


Uncompressed SACD ISO size > 3,36 GB


Zucchero 'Sugar' Fornaciari - The SACD Reissue Series 2004 (1983-2001) 10x MCH PS3 ISO + Hi-Res FLAC

Zucchero 'Sugar' Fornaciari - Spirito DiVino (1995) [Reissue 2004]
PS3 Rip | SACD ISO | DST64 2.0 & 5.1 > 1-bit/2.8224 MHz | 44:40 minutes | Full Scans included | 3,15 GB
or FLAC 2.0 Stereo (converted with foobar2000 to tracks) 24bit/88,2 kHz | Full Scans included | 980 MB
Features Stereo and Multichannel Surround Sound


Tracklist:

01. Voodoo Voodoo
02. Datemi una Pompa
03. O.L.S.M.M.
04. Pane e Sale
05. X Colpa di Chi?
06. Il Volo
07. Senza Rimorso
08. Papa' Perche'
09. Cosi' Celeste
10. Alleluja

foobar2000 1.5.4 / Dynamic Range Meter 1.1.1

––––––––––––––––––––––––––––––––––––––––
Analyzed: Zucchero Sugar Fornaciari / SpiritoDiVino
––––––––––––––––––––––––––––––––––––––––

DR Peak RMS Duration Track
––––––––––––––––––––––––––––––––––––––––
DR13 -5.51 dB -22.87 dB 4:09 01-Voodoo Voodoo
DR12 -6.08 dB -22.06 dB 4:05 02-Datemi una Pompa
DR12 -5.65 dB -21.37 dB 3:28 03-O.L.S.M.M.
DR11 -6.92 dB -22.67 dB 5:12 04-Pane e Sale
DR12 -5.45 dB -22.89 dB 3:59 05-X Colpa di Chi?
DR12 -6.85 dB -24.29 dB 5:31 06-Il Volo
DR11 -7.18 dB -22.83 dB 4:36 07-Senza Rimorso
DR12 -5.40 dB -21.72 dB 4:00 08-Papa' Perche'
DR11 -6.84 dB -22.12 dB 4:55 09-Cosi' Celeste
DR12 -5.50 dB -21.87 dB 4:47 10-Alleluja
––––––––––––––––––––––––––––––––––––––––

Number of tracks: 10
Official DR value: DR12

Samplerate: 2822400 Hz / PCM Samplerate: 176400 Hz
Channels: 6
Bits per sample: 1
Bitrate: 16934 kbps
Codec: DST64
================================================================================

––––––––––––––––––––––––––––––––––––––––
Analyzed: Zucchero Sugar Fornaciari / SpiritoDiVino
––––––––––––––––––––––––––––––––––––––––

DR Peak RMS Duration Track
––––––––––––––––––––––––––––––––––––––––
DR11 -5.69 dB -19.45 dB 4:08 01-Voodoo Voodoo
DR11 -5.93 dB -18.52 dB 4:05 02-Datemi una Pompa
DR10 -5.71 dB -17.73 dB 3:28 03-O.L.S.M.M.
DR11 -6.03 dB -18.92 dB 5:12 04-Pane e Sale
DR11 -5.83 dB -19.33 dB 3:59 05-X Colpa di Chi?
DR12 -5.89 dB -20.90 dB 5:31 06-Il Volo
DR11 -6.70 dB -19.37 dB 4:36 07-Senza Rimorso
DR11 -4.97 dB -18.19 dB 4:00 08-Papa' Perche'
DR10 -6.08 dB -18.63 dB 4:55 09-Cosi' Celeste
DR11 -4.78 dB -18.45 dB 4:46 10-Alleluja
––––––––––––––––––––––––––––––––––––––––

Number of tracks: 10
Official DR value: DR11

Samplerate: 2822400 Hz / PCM Samplerate: 176400 Hz
Channels: 2
Bits per sample: 1
Bitrate: 5645 kbps
Codec: DST64


Uncompressed SACD ISO size > 2,98 GB


Zucchero 'Sugar' Fornaciari - The SACD Reissue Series 2004 (1983-2001) 10x MCH PS3 ISO + Hi-Res FLAC

Zucchero 'Sugar' Fornaciari - Blue Sugar (1998) [Reissue 2004]
PS3 Rip | SACD ISO | DST64 2.0 & 5.1 > 1-bit/2.8224 MHz | 50:56 minutes | Full Scans included | 3,68 GB
or FLAC 2.0 Stereo (converted with foobar2000 to tracks) 24bit/88,2 kHz | Full Scans included | 1,1 GB
Features Stereo and Multichannel Surround Sound

Tracklist:

01. You Make Me Feel Loved
02. Blu
03. Arcord
04. Puro Amore
05. Back 2 U
06. Donkey Tonkey
07. Per Sempre Tuo
08. Eccetera Eccetera
09. Karma Stai Kalma
10. Dopo Di Noi
11. I Tempi Cambieranno

foobar2000 1.5.4 / Dynamic Range Meter 1.1.1

––––––––––––––––––––––––––––––––––––––––
Analyzed: Zucchero / Blue Sugar
––––––––––––––––––––––––––––––––––––––––

DR Peak RMS Duration Track
––––––––––––––––––––––––––––––––––––––––
DR9 -5.59 dB -18.80 dB 3:59 01-You Make Me Feel Loved
DR10 -5.76 dB -20.94 dB 5:46 02-Blu
DR9 -5.64 dB -20.63 dB 4:42 03-Arcord
DR9 -5.81 dB -20.78 dB 3:29 04-Puro Amore
DR8 -5.40 dB -19.13 dB 4:33 05-Back 2 U
DR11 -6.07 dB -21.08 dB 4:55 06-Donkey Tonkey
DR8 -5.62 dB -19.33 dB 4:09 07-Per Sempre Tuo
DR9 -5.54 dB -19.86 dB 5:29 08-Eccetera Eccetera
DR11 -7.21 dB -22.92 dB 4:44 09-Karma Stai Kalma
DR9 -5.65 dB -20.32 dB 4:33 10-Dopo Di Noi
DR11 -7.61 dB -25.34 dB 4:39 11-I Tempi Cambieranno
––––––––––––––––––––––––––––––––––––––––

Number of tracks: 11
Official DR value: DR9

Samplerate: 2822400 Hz / PCM Samplerate: 176400 Hz
Channels: 6
Bits per sample: 1
Bitrate: 16934 kbps
Codec: DST64
================================================================================

––––––––––––––––––––––––––––––––––––––––
Analyzed: Zucchero / Blue Sugar
––––––––––––––––––––––––––––––––––––––––

DR Peak RMS Duration Track
––––––––––––––––––––––––––––––––––––––––
DR8 -5.12 dB -14.77 dB 3:59 01-You Make Me Feel Loved
DR9 -5.23 dB -16.89 dB 5:46 02-Blu
DR7 -4.97 dB -16.46 dB 4:42 03-Arcord
DR7 -5.48 dB -16.70 dB 3:29 04-Puro Amore
DR7 -4.88 dB -15.04 dB 4:33 05-Back 2 U
DR10 -5.41 dB -17.08 dB 4:55 06-Donkey Tonkey
DR7 -5.25 dB -15.29 dB 4:08 07-Per Sempre Tuo
DR7 -4.77 dB -15.82 dB 5:28 08-Eccetera Eccetera
DR11 -5.68 dB -18.69 dB 4:44 09-Karma Stai Kalma
DR7 -5.08 dB -16.21 dB 4:34 10-Dopo Di Noi
DR11 -6.01 dB -21.44 dB 4:37 11-I Tempi Cambieranno
––––––––––––––––––––––––––––––––––––––––

Number of tracks: 11
Official DR value: DR8

Samplerate: 2822400 Hz / PCM Samplerate: 176400 Hz
Channels: 2
Bits per sample: 1
Bitrate: 5645 kbps
Codec: DST64


Uncompressed SACD ISO size > 3,49 GB


Zucchero 'Sugar' Fornaciari - The SACD Reissue Series 2004 (1983-2001) 10x MCH PS3 ISO + Hi-Res FLAC

Zucchero 'Sugar' Fornaciari - Shake (2001) [Reissue 2004]
PS3 Rip | SACD ISO | DST64 2.0 & 5.1 > 1-bit/2.8224 MHz | 47:51 minutes | Full Scans included | 3,47 GB
or FLAC 2.0 Stereo (converted with foobar2000 to tracks) 24bit/88,2 kHz | Full Scans included | 1,02 GB
Features Stereo and Multichannel Surround Sound

Tracklist:

01. Sento le Campane
02. Music in Me
03. Porca l'Oca
04. Ali d'Oro
05. Ahum
06. Scintille
07. Baila
08. Dindondio
09. Rossa Mela Della Sera
10. Shake
11. Tobia

foobar2000 1.5.4 / Dynamic Range Meter 1.1.1

––––––––––––––––––––––––––––––––––––––––
Analyzed: Zucchero Sugar Fornaciari / Shake
––––––––––––––––––––––––––––––––––––––––

DR Peak RMS Duration Track
––––––––––––––––––––––––––––––––––––––––
DR10 -5.00 dB -18.26 dB 3:26 01-Sento le Campane
DR8 -4.56 dB -16.66 dB 3:21 02-Music in Me
DR8 -4.69 dB -15.85 dB 3:28 03-Porca l'Oca
DR9 -4.96 dB -18.26 dB 4:57 04-Ali d'Oro
DR9 -4.95 dB -18.16 dB 4:43 05-Ahum
DR7 -4.64 dB -17.15 dB 5:15 06-Scintille
DR9 -5.13 dB -17.93 dB 4:08 07-Baila
DR9 -5.03 dB -18.49 dB 4:37 08-Dindondio
DR9 -5.22 dB -19.28 dB 5:05 09-Rossa Mela Della Sera
DR9 -5.07 dB -17.87 dB 3:54 10-Shake
DR9 -5.06 dB -18.20 dB 4:57 11-Tobia
––––––––––––––––––––––––––––––––––––––––

Number of tracks: 11
Official DR value: DR9

Samplerate: 2822400 Hz / PCM Samplerate: 176400 Hz
Channels: 6
Bits per sample: 1
Bitrate: 16934 kbps
Codec: DST64
================================================================================

––––––––––––––––––––––––––––––––––––––––
Analyzed: Zucchero Sugar Fornaciari / Shake
––––––––––––––––––––––––––––––––––––––––

DR Peak RMS Duration Track
––––––––––––––––––––––––––––––––––––––––
DR9 -5.10 dB -15.15 dB 3:26 01-Sento le Campane
DR6 -4.44 dB -13.33 dB 3:21 02-Music in Me
DR6 -4.93 dB -12.67 dB 3:28 03-Porca l'Oca
DR8 -4.92 dB -15.04 dB 4:57 04-Ali d'Oro
DR7 -4.77 dB -14.91 dB 4:43 05-Ahum
DR5 -4.46 dB -13.90 dB 5:14 06-Scintille
DR8 -5.03 dB -14.66 dB 4:08 07-Baila
DR8 -4.84 dB -15.27 dB 4:37 08-Dindondio
DR8 -4.93 dB -15.79 dB 5:05 09-Rossa Mela Della Sera
DR8 -4.82 dB -14.75 dB 3:54 10-Shake
DR8 -4.93 dB -14.99 dB 4:57 11-Tobia
––––––––––––––––––––––––––––––––––––––––

Number of tracks: 11
Official DR value: DR7

Samplerate: 2822400 Hz / PCM Samplerate: 176400 Hz
Channels: 2
Bits per sample: 1
Bitrate: 5645 kbps
Codec: DST64

Uncompressed SACD ISO size > 3,29 GB
–––––––
Thanks to SergeyVP/eko456 & mostly to PS³SACD!
>