Subcategories

100 Best Carols [REPOST]

Posted By: Reincarnate
100 Best Carols [REPOST]

100 Best Carols
Classical | XLD, Flac+cue, log | cover | 6 Cd, 1.41Gb
November 6, 2007 | EMI Classics | Filesonic + Fileserve

Six CD holiday box set. Christmas is a holiday filled with magic and wonder. One of the many things that make it more special are the beautiful Christmas carols that have become a part of the holiday season. So, this year when you gather family and friends together or when you spend time decorating the house, it's time to throw on this marvelous collection containing 100 of the best holiday carols around. Let your heart sing along to glorious musical moments like 'Away In A Manger', 'The First Noel', 'O Little Town Of Bethlehem' and many, many more. EMI.

All the favourite carols inc First Nowell, Away In A Manger, O Little Town Of Bethlehem, Once In Royal David's City, Personet Hodie, Sheperd's Pipe Carol, Infant King, Noel Nouvelet, Gaudete, In Dulci Jubilo, Little Drummer Boy, Go Tell It On The Mountain, 12 Days Of Christmas, Coventry Carol, Hosanna To The Son Of David. Top artists & choirs (EMI)

Performers:

Stephen Varcoe, Evelyn Tubb, Barbara Hendricks, Roberto Alagna, Elisabeth Schwarzkopf, Thomas Hampson, Kiri Te Kanawa

Conductors:

David Willcocks, Philip Ledger, John Rutter, Andrew Parrott, Richard Hickox, Maurice Handford

Orchestras:

Taverner Consort, Taverner Players, London Sinfonia, Philharmonia Orchestra, Jacques Orchestra, Halle Orchestra

Choirs:

Kings College Cambridge Choir, Clare College Singers, Taverner Choir, Kings Singers, Ambrosian Singers, Huddersfield Choral Society, Bach Choir, Halle Choir

100 Best Carols [REPOST]


1. The First Nowell (1986 Digital Remaster) - Choir of King's College, Cambridge/Francis Grier/Sir Philip Ledger
2. Away in a manger (arr. Ledger) (1976 Digital Remaster) - Choir of King's College, Cambridge/Sir Philip Ledger
3. Up! good Christian folk and listen - Choir of King's College, Cambridge/Sir Philip Ledger
4. O little town of Bethlehem (v.3 arr. Ledger) - Choir of King's College, Cambridge/Sir Philip Ledger
5. I sing of a maiden - Choir of King's College, Cambridge/Francis Grier/Sir Philip Ledger
6. A Spotless Rose - Gareth Morrell/Choir of King's College, Cambridge/Sir Philip Ledger
7. Once in Royal David's City (harm. A. H. Mann; descant Willcocks) - Choir of King's College, Cambridge/Ian Hare/Sir David Willcocks
8. Personent hodie - Choir of King's College, Cambridge/Ian Hare/Sir David Willcocks
9. Myn Lyking - Choir of King's College, Cambridge/Ian Hare/Sir David Willcocks
10. O come, O come, Emmanuel (trans. J. M. Neale rev. T. A. Lacey; arr. Willcocks) - Choir of King's College, Cambridge/Ian Hare
11. The Holly and the Ivy - Choir of King's College, Cambridge/Sir David Willcocks
12. Silent Night (Mohr; trans. & arr. Willcocks) - Stephen Varcoe/Choir of King's College, Cambridge/Sir David Willcocks
13. While shepherds watched their flocks by night (from Este's Psalter; descant Willcocks) - Choir of King's College, Cambridge
14. It came upon the midnight clear (descant Willcocks) - Choir of King's College, Cambridge/John Wells/Sir David Willcocks
15. The Lord at first did Adam make (1991 Digital Remaster) - Choir of King's College, Cambridge/John Wells/Sir David Willcocks
16. Hark! the herald angels sing (tune & harmony adapted W. H. Cummings; brass fanfare & accomp. and descant by Willcocks)


1. Shepherd's Pipe Carol (1988 Digital Remaster) - Clare College Singers, Cambridge/Clare College Orchestra, Cambridge/Jeremy Bland
2. Infant holy, infant lowly (1988 Digital Remaster) - Simon Vaughan/Clare College Singers, Cambridge/Clare College Orchestra
3. Angel Tidings (Traditional Moravian carol, arr. Rutter) - Clare College Singers, Cambridge/Clare College Orchestra, Cambridge
4. Quelle est cette odeur agréable? (arr. Rutter) (1988 Digital Remaster) - Clare College Singers, Cambridge/Clare College Orchestra
5. I saw three ships come sailing by (arr. Rutter) (1988 Digital Remaster) - Clare College Singers, Cambridge/Clare College Orchestra
6. Nativity Carol (1988 Digital Remaster) - Clare College Singers, Cambridge/Clare College Orchestra, Cambridge/Jeremy Blandford
7. Quem pastores laudavere (1988 Digital Remaster) - Clare College Singers, Cambridge/Clare College Orchestra, Cambridge
8. Rocking (Little Jesu sweetly sleep) (Czech traditional, coll. M. Shaw trans. Dearmer) (1988 Digital Remaster) - Roger Garland
9. Here we come a-wassailing (arr. Rutter) (1988 Digital Remaster) - Clare College Singers, Cambridge/Clare College Orchestra
10. The Coming of our King (Traditional Polish carol, arr. Rutter) - Clare College Singers and Orchestra/Jeremy Blandford/John Rutter
11. The Infant King (1988 Digital Remaster) - Clare College Singers, Cambridge/Clare College Orchestra, Cambridge/Jeremy Blandford
12. Shepherds' Noël (1988 Digital Remaster) - Simon Vaughan/Clare College Singers, Cambridge/Clare College Orchestra, Cambridge
13. Noël nouvelet (1988 Digital Remaster) - Clare College Singers, Cambridge/Clare College Orchestra, Cambridge/Jeremy Blandford
14. Gabriel's Message (1988 Digital Remaster) - Simon Vaughan/Clare College Singers, Cambridge/Clare College Orchestra, Cambridge
15. Sans Day Carol, 'Now the holly bears a berry' (Traditional English Carol, arr. Rutter) (1988 Digital Remaster) - Clare College Singers
16. Past three a-clock - Clare College Singers, Cambridge/Clare College Orchestra, Cambridge/Jeremy Blandford/John Rutter


1. Methinks I see an heav'nly host - Taverner Choir/Andrew Parrott
2. Los que fueren de buen gusto - Taverner Consort/Taverner Players/Andrew Parrott
3. A Virgin Unspotted - Taverner Choir/Andrew Parrott
4. The Babe of Bethlehem (Ye nations all, on you I call) - Andrew Parrott/Taverner Choir/Taverner Consort
5. Thys endere nyghth - Andrew Parrott/Taverner Choir/Taverner Consort
6. Riu, riu, chiu - Andrew Parrott/Taverner Choir/Taverner Consort/Richard Wistreich
7. Christum wir sollen loben schon - Andrew Parrott/Taverner Choir/Taverner Consort
8. Gaudete! - Andrew Parrott/Stephen Charlesworth/Taverner Choir/Taverner Consort/Taverner Players
9. Verbum caro: In hac anni circulo - Andrew Parrott/Taverner Choir/Taverner Consort
10. Alleluya: A nywe werk is come on honde - Andrew Parrott/Leigh Nixon/Nicolas Robertson/Taverner Choir/Taverner Consort
11. The Old Year now away is fled - Andrew Parrott/Taverner Choir/Taverner Consort/Taverner Players/Evelyn Tubb
12. Hodie nobis caelorum Rex - Taverner Consort/Taverner Choir/Andrew Parrott
13. Audite principes a 16 - Taverner Consort/Taverner Choir/Taverner Players/Andrew Parrott
14. In dulci jubilo (a 16) Pars II - Taverner Choir/Taverner Consort/Taverner Players/Andrew Parrott


1. The Little Drummer Boy - The King's Singers
2. El nino querido (The Beloved Child) - The King's Singers/Charles Fullbrook
3. The Gift - The King's Singers/City of London Sinfonia/Richard Hickox
4. Berceuse De Marie (Max Reger) (Medley N°2) - Barbara Hendricks/Choeur D'Enfants Adolf Fredricks/Eric Ericson/Eric Ericson Chamber Orchestra
5. Go Tell It On The Mountain (Chant De Noël Américain Traditionnel) (Medley N°2) - Barbara Hendricks/Choeur D'Enfants
6. Joy To The World (Medley N°1) - Barbara Hendricks/Choeur D'Enfants Adolf Fredricks/Eric Ericson/Eric Ericson Chamber Choir
7. Tochter Zion, freue dich (1988 Digital Remaster) - Hermann Prey/Tölzer Knabenchor/Symphonie Orchester Graunke Munchen/Gerhard Schmid
8. Zu Bethlehem geboreb (1988 Digital Remaster) - Hermann Prey/Tölzer Knabenchor/Symphonie Orchester Graunke Munchen/Gerhard Schmid
9. Mary's Boy Child - Wiener Sängerknaben/John Parricelli
10. Ukraine Bell Carol - Wiener Sängerknaben/John Parricelli/Paul Kerr/Andy Pask/Paul Clarvis
11. Il est né, le divin Enfant (arr. Tunick) - Roberto Alagna/Abbey Road Ensemble/Jonathan Tunick
Minuit, chrétiens - Roberto Alagna/Abbey Road Ensemble/Jonathan Tunick
12. Cantique Noël (arr. Tunick) - Roberto Alagna/Abbey Road Ensemble/Jonathan Tunick
13. Marche des Rois - René Delsinne
14. Noël des îles - René Delsinne
15. Chanson joyeuse de Noël - René Delsinne
16. Weihnachten (arr. Mackerras) (1990 Digital Remaster) - Elisabeth Schwarzkopf/Ambrosian Singers/Philharmonia Orchestra
17. Von Himmel hoch (arr. Mackerras) (1990 Digital Remaster) - Elisabeth Schwarzkopf/Ambrosian Singers/Philharmonia Orchestra/
18. In the bleak mid-winter (arr. Tunick) - Dame Kiri Te Kanawa/Roberto Alagna/Abbey Road Ensemble/Jonathan Tunick
19. O Tannenbaum (arr. Osser) - Roberto Alagna/Thomas Hampson/Abbey Road Ensemble/Jonathan Tunick
20. The Twelve days of Christmas (arr. Tunick) - Dame Kiri Te Kanawa/Roberto Alagna/Thomas Hampson/London Voices/Abbey Road Ensemble


1. God rest you merry, gentlemen (arr. John Stainer) - Huddersfield Choral Society/Brian Kay/David Bell/Owain Arwel Hughes
2. Good King Wenceslas (tune from Piae Cantiones, wrds. J. M. Neale, arr. John Stainer) - Huddersfield Choral Society/Brian Kay
3. We three kings of Orient are - Huddersfield Choral Society/Brian Kay/David Bell/Owain Arwel Hughes
4. Angels from the realms of glory (arr. Charles Wood) - Huddersfield Choral Society/Brian Kay/David Bell/Owain Arwel Hughes
5. As with gladness men of old (from chorale Treuer Heiland, adapted W. H. Monk) - Huddersfield Choral Society/Brian Kay/David Bell
6. The Coventry Carol - The King's Singers/City of London Sinfonia/Richard Hickox
7. We've been awhile a-wandering - Bach Choir/Jacques Orchestra/Sir David Willcocks
8. Masters In This Hall - Bach Choir/Jacques Orchestra/Sir David Willcocks
9. See amid the winter's snow - Bach Choir/Jacques Orchestra/Sir David Willcocks
10. Sussex Carol (1993 Digital Remaster) - Bach Choir/Jacques Orchestra/Sir David Willcocks
11. Ding dong! merrily on high - Bach Choir/Sir David Willcocks
12. O little one sweet BWV493 (1993 Digital Remaster) - Bach Choir/Sir David Willcocks
13. 5. Wassail Song - Bach Choir/Sir David Willcocks
14. Carol with Lullaby - Bach Choir/Jacques Orchestra/Sir David Willcocks
15. Cowboy Carol (2002 Digital Remaster) - Hallé Choir/Ronald Frost/Maurice Handford
16. The Shepherds' Farewell (from L'Enfance du Christ Op. 25) (2002 Digital Remaster) - Hallé Orchestra/Maurice Handford/Hallé Choir
17. We wish you a merry Christmas (West Country) (2002 Digital Remaster) - Hallé Orchestra/Maurice Handford/Hallé Choir/Ronald Frost


1. Nowell! Nowell! Nowell! - Choir of King's College, Cambridge/Sir David Willcocks
2. And all in the morning (1991 Digital Remaster) - Choir of King's College, Cambridge/Sir David Willcocks
3. I saw a maiden (1991 Digital Remaster) - Choir of King's College, Cambridge/Sir David Willcocks
4. A child is born in Bethlehem [Ein Kind geborn zu Bethlehem] (1991 Digital Remaster) - Choir of King's College, Cambridge
5. Where Riches is Everlastingly (1991 Digital Remaster) - Choir of King's College, Cambridge/Sir Andrew Davis/Sir David Willcocks
6. How far is it to Bethlehem? (2004 Digital Remaster) - Choir of King's College, Cambridge/Sir David Willcocks
7. Of the Father's heart begotten (2004 Digital Remaster) - Choir of King's College, Cambridge/Ian Hare/Sir David Willcocks
8. Resonemus laudibus (2004 Digital Remaster) - Choir of King's College, Cambridge/Ian Hare/Sir David Willcocks
9. The Shepherds' Cradle Song (2004 Digital Remaster) - Choir of King's College, Cambridge/Sir David Willcocks
10. Quittez, pasteurs (2004 Digital Remaster) - Choir of King's College, Cambridge/Robert Chilcott/Francis Grier/Sir Philip Ledger
11. Lully, lulla, thou little tiny child (2004 Digital Remaster) - Choir of King's College, Cambridge/Timothy Byram-Wigfield
12. Remember, O thou man (2004 Digital Remaster) - Choir of King's College, Cambridge/Sir Philip Ledger
13. Hodie Christus natus est (1991 Digital Remaster) - Choir of King's College, Cambridge/Sir David Willcocks
14. Hosanna to the Son of David (remaster) (1991 Digital Remaster) - Choir of King's College, Cambridge/Sir David Willcocks
15. Angelus ad virginem (1991 Digital Remaster) - Choir of King's College, Cambridge/Sir David Willcocks/Sir Andrew Davis
16. My Dancing Day (1991 Digital Remaster) - Choir of King's College, Cambridge/Sir Andrew Davis/David Whittaker
17. O come, all ye faithful (harm. English Hymnal; brass fanfare & accomp., descant and last v. by Willcocks) - Choir of King's College Cambridge


X Lossless Decoder version 20090320 (105.1)

XLD extraction logfile from 2009-05-01 00:21:19 +0400

Various Artists / Best Carols 100

Used drive : OPTIARC DVD RW AD-7170A (revision 1.NC)

Use cdparanoia mode : YES (CDParanoia III 10.2 engine)
Disable audio cache : OK for the drive with cache less than 2750KB
Make use of C2 pointers : NO
Read offset correction : 48
Max retry count : 100

TOC of the extracted CD
Track | Start | Length | Start sector | End sector
––––––––––––––––––––––––––––-
1 | 00:00:00 | 05:00:15 | 0 | 22514
2 | 05:00:15 | 02:12:22 | 22515 | 32436
3 | 07:12:37 | 01:19:68 | 32437 | 38429
4 | 08:32:30 | 03:32:38 | 38430 | 54367
5 | 12:04:68 | 02:31:70 | 54368 | 65762
6 | 14:36:63 | 03:12:26 | 65763 | 80188
7 | 17:49:14 | 05:14:55 | 80189 | 103793
8 | 23:03:69 | 02:43:02 | 103794 | 116020
9 | 25:46:71 | 03:20:27 | 116021 | 131047
10 | 29:07:23 | 03:34:41 | 131048 | 147138
11 | 32:41:64 | 03:12:50 | 147139 | 161588
12 | 35:54:39 | 03:07:54 | 161589 | 175667
13 | 39:02:18 | 02:54:24 | 175668 | 188741
14 | 41:56:42 | 03:34:40 | 188742 | 204831
15 | 45:31:07 | 03:19:29 | 204832 | 219785
16 | 48:50:36 | 04:08:65 | 219786 | 238450


All Tracks
Filename : /Users/mac/Music/Ripping/100 Best Carols/Best Carols 100.flac
CRC32 hash : 5254F532
CRC32 hash (skip zero) : 2CC37B7B
Statistics
Read error : 0
Skipped (treated as error) : 0
Edge jitter error (maybe fixed) : 3
Atom jitter error (maybe fixed) : 2
Drift error (maybe fixed) : 0
Dropped bytes error (maybe fixed) : 0
Duplicated bytes error (maybe fixed) : 2

Track 01
CRC32 hash : 60B9B361
CRC32 hash (skip zero) : 17FC9474
AccurateRip signature : 099845D1
->Accurately ripped! (confidence 1)
Statistics
Read error : 0
Skipped (treated as error) : 0
Edge jitter error (maybe fixed) : 0
Atom jitter error (maybe fixed) : 0
Drift error (maybe fixed) : 0
Dropped bytes error (maybe fixed) : 0
Duplicated bytes error (maybe fixed) : 0

Track 02
CRC32 hash : 960E1D16
CRC32 hash (skip zero) : 6E0E0BAB
AccurateRip signature : BE67296C
->Accurately ripped! (confidence 1)
Statistics
Read error : 0
Skipped (treated as error) : 0
Edge jitter error (maybe fixed) : 0
Atom jitter error (maybe fixed) : 0
Drift error (maybe fixed) : 0
Dropped bytes error (maybe fixed) : 0
Duplicated bytes error (maybe fixed) : 0

Track 03
CRC32 hash : 4483DA9F
CRC32 hash (skip zero) : 51243883
AccurateRip signature : 513BC8FC
->Accurately ripped! (confidence 1)
Statistics
Read error : 0
Skipped (treated as error) : 0
Edge jitter error (maybe fixed) : 1
Atom jitter error (maybe fixed) : 1
Drift error (maybe fixed) : 0
Dropped bytes error (maybe fixed) : 0
Duplicated bytes error (maybe fixed) : 1

Track 04
CRC32 hash : 34F9189B
CRC32 hash (skip zero) : 377A4B2F
AccurateRip signature : 02CC1241
->Accurately ripped! (confidence 1)
Statistics
Read error : 0
Skipped (treated as error) : 0
Edge jitter error (maybe fixed) : 0
Atom jitter error (maybe fixed) : 0
Drift error (maybe fixed) : 0
Dropped bytes error (maybe fixed) : 0
Duplicated bytes error (maybe fixed) : 0

Track 05
CRC32 hash : 6F184946
CRC32 hash (skip zero) : 64B0C6B0
AccurateRip signature : C25C11D9
->Accurately ripped! (confidence 1)
Statistics
Read error : 0
Skipped (treated as error) : 0
Edge jitter error (maybe fixed) : 0
Atom jitter error (maybe fixed) : 0
Drift error (maybe fixed) : 0
Dropped bytes error (maybe fixed) : 0
Duplicated bytes error (maybe fixed) : 0

Track 06
CRC32 hash : 1369CE77
CRC32 hash (skip zero) : 5D9377ED
AccurateRip signature : 211F5F0C
->Accurately ripped! (confidence 1)
Statistics
Read error : 0
Skipped (treated as error) : 0
Edge jitter error (maybe fixed) : 0
Atom jitter error (maybe fixed) : 0
Drift error (maybe fixed) : 0
Dropped bytes error (maybe fixed) : 0
Duplicated bytes error (maybe fixed) : 0

Track 07
CRC32 hash : A411E52A
CRC32 hash (skip zero) : 6B101243
AccurateRip signature : C979A521
->Accurately ripped! (confidence 1)
Statistics
Read error : 0
Skipped (treated as error) : 0
Edge jitter error (maybe fixed) : 0
Atom jitter error (maybe fixed) : 0
Drift error (maybe fixed) : 0
Dropped bytes error (maybe fixed) : 0
Duplicated bytes error (maybe fixed) : 0

Track 08
CRC32 hash : 21EEA988
CRC32 hash (skip zero) : 2FA827DA
AccurateRip signature : 0F8E769A
->Accurately ripped! (confidence 1)
Statistics
Read error : 0
Skipped (treated as error) : 0
Edge jitter error (maybe fixed) : 0
Atom jitter error (maybe fixed) : 0
Drift error (maybe fixed) : 0
Dropped bytes error (maybe fixed) : 0
Duplicated bytes error (maybe fixed) : 0

Track 09
CRC32 hash : 141E8B91
CRC32 hash (skip zero) : B221A09D
AccurateRip signature : D75F8F2F
->Accurately ripped! (confidence 1)
Statistics
Read error : 0
Skipped (treated as error) : 0
Edge jitter error (maybe fixed) : 0
Atom jitter error (maybe fixed) : 0
Drift error (maybe fixed) : 0
Dropped bytes error (maybe fixed) : 0
Duplicated bytes error (maybe fixed) : 0

Track 10
CRC32 hash : B307D189
CRC32 hash (skip zero) : 55FEFF67
AccurateRip signature : 2E212527
->Accurately ripped! (confidence 1)
Statistics
Read error : 0
Skipped (treated as error) : 0
Edge jitter error (maybe fixed) : 0
Atom jitter error (maybe fixed) : 0
Drift error (maybe fixed) : 0
Dropped bytes error (maybe fixed) : 0
Duplicated bytes error (maybe fixed) : 0

Track 11
CRC32 hash : FEEBCFF1
CRC32 hash (skip zero) : 3EBD8C61
AccurateRip signature : 7249ADB9
->Accurately ripped! (confidence 1)
Statistics
Read error : 0
Skipped (treated as error) : 0
Edge jitter error (maybe fixed) : 0
Atom jitter error (maybe fixed) : 0
Drift error (maybe fixed) : 0
Dropped bytes error (maybe fixed) : 0
Duplicated bytes error (maybe fixed) : 0

Track 12
CRC32 hash : 28077920
CRC32 hash (skip zero) : ACB25EE8
AccurateRip signature : FBA71BCB
->Accurately ripped! (confidence 1)
Statistics
Read error : 0
Skipped (treated as error) : 0
Edge jitter error (maybe fixed) : 2
Atom jitter error (maybe fixed) : 1
Drift error (maybe fixed) : 0
Dropped bytes error (maybe fixed) : 0
Duplicated bytes error (maybe fixed) : 1

Track 13
CRC32 hash : 48CFC061
CRC32 hash (skip zero) : DA16964E
AccurateRip signature : 32E6B677
->Accurately ripped! (confidence 1)
Statistics
Read error : 0
Skipped (treated as error) : 0
Edge jitter error (maybe fixed) : 0
Atom jitter error (maybe fixed) : 0
Drift error (maybe fixed) : 0
Dropped bytes error (maybe fixed) : 0
Duplicated bytes error (maybe fixed) : 0

Track 14
CRC32 hash : 76439AB1
CRC32 hash (skip zero) : 2CB62F9A
AccurateRip signature : CB13CB05
->Accurately ripped! (confidence 1)
Statistics
Read error : 0
Skipped (treated as error) : 0
Edge jitter error (maybe fixed) : 0
Atom jitter error (maybe fixed) : 0
Drift error (maybe fixed) : 0
Dropped bytes error (maybe fixed) : 0
Duplicated bytes error (maybe fixed) : 0

Track 15
CRC32 hash : FC4F97A8
CRC32 hash (skip zero) : 9DCFC756
AccurateRip signature : 16811BFC
->Accurately ripped! (confidence 1)
Statistics
Read error : 0
Skipped (treated as error) : 0
Edge jitter error (maybe fixed) : 0
Atom jitter error (maybe fixed) : 0
Drift error (maybe fixed) : 0
Dropped bytes error (maybe fixed) : 0
Duplicated bytes error (maybe fixed) : 0

Track 16
CRC32 hash : 244AA209
CRC32 hash (skip zero) : 589EAC47
AccurateRip signature : 785C691B
->Accurately ripped! (confidence 1)
Statistics
Read error : 0
Skipped (treated as error) : 0
Edge jitter error (maybe fixed) : 0
Atom jitter error (maybe fixed) : 0
Drift error (maybe fixed) : 0
Dropped bytes error (maybe fixed) : 0
Duplicated bytes error (maybe fixed) : 0

No errors occurred

End of status report
X Lossless Decoder version 20090320 (105.1)

XLD extraction logfile from 2009-05-01 00:46:54 +0400

Clare College Singers, Cambridge / 100 Best Carols Two

Used drive : OPTIARC DVD RW AD-7170A (revision 1.NC)

Use cdparanoia mode : YES (CDParanoia III 10.2 engine)
Disable audio cache : OK for the drive with cache less than 2750KB
Make use of C2 pointers : NO
Read offset correction : 48
Max retry count : 100

TOC of the extracted CD
Track | Start | Length | Start sector | End sector
––––––––––––––––––––––––––––-
1 | 00:00:00 | 02:55:21 | 0 | 13145
2 | 02:55:21 | 03:14:70 | 13146 | 27765
3 | 06:10:16 | 01:44:39 | 27766 | 35604
4 | 07:54:55 | 03:25:22 | 35605 | 51001
5 | 11:20:02 | 02:02:66 | 51002 | 60217
6 | 13:22:68 | 04:10:51 | 60218 | 79018
7 | 17:33:44 | 02:24:51 | 79019 | 89869
8 | 19:58:20 | 03:54:21 | 89870 | 107440
9 | 23:52:41 | 04:09:16 | 107441 | 126131
10 | 28:01:57 | 02:39:71 | 126132 | 138127
11 | 30:41:53 | 03:08:56 | 138128 | 152283
12 | 33:50:34 | 03:06:69 | 152284 | 166302
13 | 36:57:28 | 03:31:23 | 166303 | 182150
14 | 40:28:51 | 03:49:59 | 182151 | 199384
15 | 44:18:35 | 03:19:34 | 199385 | 214343
16 | 47:37:69 | 02:28:31 | 214344 | 225474


All Tracks
Filename : /Users/mac/Music/Ripping/100 Best Carols/100 Best Carols Two.flac
CRC32 hash : DDF3ECC9
CRC32 hash (skip zero) : C3DE65B7
Statistics
Read error : 0
Skipped (treated as error) : 0
Edge jitter error (maybe fixed) : 1
Atom jitter error (maybe fixed) : 1
Drift error (maybe fixed) : 0
Dropped bytes error (maybe fixed) : 0
Duplicated bytes error (maybe fixed) : 0

Track 01
CRC32 hash : EFF26E7C
CRC32 hash (skip zero) : 64AB9E73
AccurateRip signature : FBD30024
->Accurately ripped! (confidence 1)
Statistics
Read error : 0
Skipped (treated as error) : 0
Edge jitter error (maybe fixed) : 0
Atom jitter error (maybe fixed) : 0
Drift error (maybe fixed) : 0
Dropped bytes error (maybe fixed) : 0
Duplicated bytes error (maybe fixed) : 0

Track 02
CRC32 hash : 78D8C49B
CRC32 hash (skip zero) : 2549ED29
AccurateRip signature : 062B75D8
->Accurately ripped! (confidence 1)
Statistics
Read error : 0
Skipped (treated as error) : 0
Edge jitter error (maybe fixed) : 0
Atom jitter error (maybe fixed) : 0
Drift error (maybe fixed) : 0
Dropped bytes error (maybe fixed) : 0
Duplicated bytes error (maybe fixed) : 0

Track 03
CRC32 hash : 34594C1C
CRC32 hash (skip zero) : BD6CF29F
AccurateRip signature : BC9E2289
->Accurately ripped! (confidence 1)
Statistics
Read error : 0
Skipped (treated as error) : 0
Edge jitter error (maybe fixed) : 0
Atom jitter error (maybe fixed) : 0
Drift error (maybe fixed) : 0
Dropped bytes error (maybe fixed) : 0
Duplicated bytes error (maybe fixed) : 0

Track 04
CRC32 hash : A46A89FC
CRC32 hash (skip zero) : 98177851
AccurateRip signature : 6A71B260
->Accurately ripped! (confidence 1)
Statistics
Read error : 0
Skipped (treated as error) : 0
Edge jitter error (maybe fixed) : 0
Atom jitter error (maybe fixed) : 0
Drift error (maybe fixed) : 0
Dropped bytes error (maybe fixed) : 0
Duplicated bytes error (maybe fixed) : 0

Track 05
CRC32 hash : 648AE2F1
CRC32 hash (skip zero) : 21804631
AccurateRip signature : 447335EE
->Accurately ripped! (confidence 1)
Statistics
Read error : 0
Skipped (treated as error) : 0
Edge jitter error (maybe fixed) : 0
Atom jitter error (maybe fixed) : 0
Drift error (maybe fixed) : 0
Dropped bytes error (maybe fixed) : 0
Duplicated bytes error (maybe fixed) : 0

Track 06
CRC32 hash : FF6BD58F
CRC32 hash (skip zero) : E5CA8ABC
AccurateRip signature : 93775C7F
->Accurately ripped! (confidence 1)
Statistics
Read error : 0
Skipped (treated as error) : 0
Edge jitter error (maybe fixed) : 0
Atom jitter error (maybe fixed) : 0
Drift error (maybe fixed) : 0
Dropped bytes error (maybe fixed) : 0
Duplicated bytes error (maybe fixed) : 0

Track 07
CRC32 hash : 782FCF43
CRC32 hash (skip zero) : C0B17543
AccurateRip signature : 68B21CEC
->Accurately ripped! (confidence 1)
Statistics
Read error : 0
Skipped (treated as error) : 0
Edge jitter error (maybe fixed) : 0
Atom jitter error (maybe fixed) : 0
Drift error (maybe fixed) : 0
Dropped bytes error (maybe fixed) : 0
Duplicated bytes error (maybe fixed) : 0

Track 08
CRC32 hash : F643CFE7
CRC32 hash (skip zero) : CB0C5E3C
AccurateRip signature : 44C15A1F
->Accurately ripped! (confidence 1)
Statistics
Read error : 0
Skipped (treated as error) : 0
Edge jitter error (maybe fixed) : 0
Atom jitter error (maybe fixed) : 0
Drift error (maybe fixed) : 0
Dropped bytes error (maybe fixed) : 0
Duplicated bytes error (maybe fixed) : 0

Track 09
CRC32 hash : A5E6C4B6
CRC32 hash (skip zero) : 011F7D04
AccurateRip signature : 9AE53AB2
->Accurately ripped! (confidence 1)
Statistics
Read error : 0
Skipped (treated as error) : 0
Edge jitter error (maybe fixed) : 0
Atom jitter error (maybe fixed) : 0
Drift error (maybe fixed) : 0
Dropped bytes error (maybe fixed) : 0
Duplicated bytes error (maybe fixed) : 0

Track 10
CRC32 hash : 9D672440
CRC32 hash (skip zero) : 48E053CA
AccurateRip signature : 8361B80C
->Accurately ripped! (confidence 1)
Statistics
Read error : 0
Skipped (treated as error) : 0
Edge jitter error (maybe fixed) : 0
Atom jitter error (maybe fixed) : 0
Drift error (maybe fixed) : 0
Dropped bytes error (maybe fixed) : 0
Duplicated bytes error (maybe fixed) : 0

Track 11
CRC32 hash : 9CEE2F0E
CRC32 hash (skip zero) : 876A2170
AccurateRip signature : 7D4AB385
->Accurately ripped! (confidence 1)
Statistics
Read error : 0
Skipped (treated as error) : 0
Edge jitter error (maybe fixed) : 0
Atom jitter error (maybe fixed) : 0
Drift error (maybe fixed) : 0
Dropped bytes error (maybe fixed) : 0
Duplicated bytes error (maybe fixed) : 0

Track 12
CRC32 hash : 2C8CE109
CRC32 hash (skip zero) : C3986379
AccurateRip signature : 2603787A
->Accurately ripped! (confidence 1)
Statistics
Read error : 0
Skipped (treated as error) : 0
Edge jitter error (maybe fixed) : 0
Atom jitter error (maybe fixed) : 0
Drift error (maybe fixed) : 0
Dropped bytes error (maybe fixed) : 0
Duplicated bytes error (maybe fixed) : 0

Track 13
CRC32 hash : 34CA8DAC
CRC32 hash (skip zero) : E111BA95
AccurateRip signature : 80147734
->Accurately ripped! (confidence 1)
Statistics
Read error : 0
Skipped (treated as error) : 0
Edge jitter error (maybe fixed) : 0
Atom jitter error (maybe fixed) : 0
Drift error (maybe fixed) : 0
Dropped bytes error (maybe fixed) : 0
Duplicated bytes error (maybe fixed) : 0

Track 14
CRC32 hash : 03323E44
CRC32 hash (skip zero) : 2A348451
AccurateRip signature : BEC85D64
->Accurately ripped! (confidence 1)
Statistics
Read error : 0
Skipped (treated as error) : 0
Edge jitter error (maybe fixed) : 0
Atom jitter error (maybe fixed) : 0
Drift error (maybe fixed) : 0
Dropped bytes error (maybe fixed) : 0
Duplicated bytes error (maybe fixed) : 0

Track 15
CRC32 hash : 0125B83C
CRC32 hash (skip zero) : A2072E74
AccurateRip signature : FE398DE4
->Accurately ripped! (confidence 1)
Statistics
Read error : 0
Skipped (treated as error) : 0
Edge jitter error (maybe fixed) : 0
Atom jitter error (maybe fixed) : 0
Drift error (maybe fixed) : 0
Dropped bytes error (maybe fixed) : 0
Duplicated bytes error (maybe fixed) : 0

Track 16
CRC32 hash : EC339804
CRC32 hash (skip zero) : B240832A
AccurateRip signature : 88964B00
->Accurately ripped! (confidence 1)
Statistics
Read error : 0
Skipped (treated as error) : 0
Edge jitter error (maybe fixed) : 1
Atom jitter error (maybe fixed) : 1
Drift error (maybe fixed) : 0
Dropped bytes error (maybe fixed) : 0
Duplicated bytes error (maybe fixed) : 0

No errors occurred

End of status report
X Lossless Decoder version 20090320 (105.1)

XLD extraction logfile from 2009-05-01 00:57:26 +0400

Taverner Consort, Choir and Players / Best 100 Carols - CD3

Used drive : OPTIARC DVD RW AD-7170A (revision 1.NC)

Use cdparanoia mode : YES (CDParanoia III 10.2 engine)
Disable audio cache : OK for the drive with cache less than 2750KB
Make use of C2 pointers : NO
Read offset correction : 48
Max retry count : 100

TOC of the extracted CD
Track | Start | Length | Start sector | End sector
––––––––––––––––––––––––––––-
1 | 00:00:00 | 02:52:66 | 0 | 12965
2 | 02:52:66 | 04:17:61 | 12966 | 32301
3 | 07:10:52 | 03:17:71 | 32302 | 47147
4 | 10:28:48 | 02:44:71 | 47148 | 59518
5 | 13:13:44 | 04:47:01 | 59519 | 81044
6 | 18:00:45 | 03:26:19 | 81045 | 96513
7 | 21:26:64 | 03:09:14 | 96514 | 110702
8 | 24:36:03 | 01:45:35 | 110703 | 118612
9 | 26:21:38 | 02:22:34 | 118613 | 129296
10 | 28:43:72 | 05:54:10 | 129297 | 155856
11 | 34:38:07 | 01:54:53 | 155857 | 164459
12 | 36:32:60 | 03:24:38 | 164460 | 179797
13 | 39:57:23 | 06:18:05 | 179798 | 208152
14 | 46:15:28 | 03:45:63 | 208153 | 225090


All Tracks
Filename : /Users/mac/Music/Ripping/100 Best Carols/Best 100 Carols - CD3.flac
CRC32 hash : D4C2F064
CRC32 hash (skip zero) : C39C22A2
Statistics
Read error : 0
Skipped (treated as error) : 0
Edge jitter error (maybe fixed) : 5
Atom jitter error (maybe fixed) : 3
Drift error (maybe fixed) : 0
Dropped bytes error (maybe fixed) : 1
Duplicated bytes error (maybe fixed) : 3

Track 01
CRC32 hash : E2C3C2C3
CRC32 hash (skip zero) : DE72923B
AccurateRip signature : CB8CC064
->Accurately ripped! (confidence 1)
Statistics
Read error : 0
Skipped (treated as error) : 0
Edge jitter error (maybe fixed) : 0
Atom jitter error (maybe fixed) : 0
Drift error (maybe fixed) : 0
Dropped bytes error (maybe fixed) : 0
Duplicated bytes error (maybe fixed) : 0

Track 02
CRC32 hash : 25EBC090
CRC32 hash (skip zero) : FF3052C3
AccurateRip signature : 8EA726EB
->Accurately ripped! (confidence 1)
Statistics
Read error : 0
Skipped (treated as error) : 0
Edge jitter error (maybe fixed) : 2
Atom jitter error (maybe fixed) : 1
Drift error (maybe fixed) : 0
Dropped bytes error (maybe fixed) : 1
Duplicated bytes error (maybe fixed) : 1

Track 03
CRC32 hash : B2C95C86
CRC32 hash (skip zero) : AFC50A7E
AccurateRip signature : 7C5D6F97
->Accurately ripped! (confidence 1)
Statistics
Read error : 0
Skipped (treated as error) : 0
Edge jitter error (maybe fixed) : 0
Atom jitter error (maybe fixed) : 0
Drift error (maybe fixed) : 0
Dropped bytes error (maybe fixed) : 0
Duplicated bytes error (maybe fixed) : 0

Track 04
CRC32 hash : F5AF255C
CRC32 hash (skip zero) : D5311012
AccurateRip signature : 9A3DA57C
->Accurately ripped! (confidence 1)
Statistics
Read error : 0
Skipped (treated as error) : 0
Edge jitter error (maybe fixed) : 1
Atom jitter error (maybe fixed) : 1
Drift error (maybe fixed) : 0
Dropped bytes error (maybe fixed) : 0
Duplicated bytes error (maybe fixed) : 1

Track 05
CRC32 hash : 4B45A762
CRC32 hash (skip zero) : 906721B6
AccurateRip signature : CEB63BAA
->Accurately ripped! (confidence 1)
Statistics
Read error : 0
Skipped (treated as error) : 0
Edge jitter error (maybe fixed) : 2
Atom jitter error (maybe fixed) : 1
Drift error (maybe fixed) : 0
Dropped bytes error (maybe fixed) : 0
Duplicated bytes error (maybe fixed) : 1

Track 06
CRC32 hash : E8194DD5
CRC32 hash (skip zero) : 8C3322D2
AccurateRip signature : 3DB09F12
->Accurately ripped! (confidence 1)
Statistics
Read error : 0
Skipped (treated as error) : 0
Edge jitter error (maybe fixed) : 0
Atom jitter error (maybe fixed) : 0
Drift error (maybe fixed) : 0
Dropped bytes error (maybe fixed) : 0
Duplicated bytes error (maybe fixed) : 0

Track 07
CRC32 hash : DFF0B6F4
CRC32 hash (skip zero) : 7B4143A2
AccurateRip signature : 4C4E0224
->Accurately ripped! (confidence 1)
Statistics
Read error : 0
Skipped (treated as error) : 0
Edge jitter error (maybe fixed) : 0
Atom jitter error (maybe fixed) : 0
Drift error (maybe fixed) : 0
Dropped bytes error (maybe fixed) : 0
Duplicated bytes error (maybe fixed) : 0

Track 08
CRC32 hash : AE9705A6
CRC32 hash (skip zero) : 42C9CAA1
AccurateRip signature : 0AE4AA06
->Accurately ripped! (confidence 1)
Statistics
Read error : 0
Skipped (treated as error) : 0
Edge jitter error (maybe fixed) : 0
Atom jitter error (maybe fixed) : 0
Drift error (maybe fixed) : 0
Dropped bytes error (maybe fixed) : 0
Duplicated bytes error (maybe fixed) : 0

Track 09
CRC32 hash : C9BB16BB
CRC32 hash (skip zero) : 7386F7B8
AccurateRip signature : F59D08F1
->Accurately ripped! (confidence 1)
Statistics
Read error : 0
Skipped (treated as error) : 0
Edge jitter error (maybe fixed) : 0
Atom jitter error (maybe fixed) : 0
Drift error (maybe fixed) : 0
Dropped bytes error (maybe fixed) : 0
Duplicated bytes error (maybe fixed) : 0

Track 10
CRC32 hash : 01C3F2EB
CRC32 hash (skip zero) : 4D4EC596
AccurateRip signature : 3CAFFD87
->Accurately ripped! (confidence 1)
Statistics
Read error : 0
Skipped (treated as error) : 0
Edge jitter error (maybe fixed) : 0
Atom jitter error (maybe fixed) : 0
Drift error (maybe fixed) : 0
Dropped bytes error (maybe fixed) : 0
Duplicated bytes error (maybe fixed) : 0

Track 11
CRC32 hash : 9711C046
CRC32 hash (skip zero) : C6F7EA48
AccurateRip signature : A797DC98
->Accurately ripped! (confidence 1)
Statistics
Read error : 0
Skipped (treated as error) : 0
Edge jitter error (maybe fixed) : 0
Atom jitter error (maybe fixed) : 0
Drift error (maybe fixed) : 0
Dropped bytes error (maybe fixed) : 0
Duplicated bytes error (maybe fixed) : 0

Track 12
CRC32 hash : 7C3E49F9
CRC32 hash (skip zero) : F95AF858
AccurateRip signature : 3BC496DE
->Accurately ripped! (confidence 1)
Statistics
Read error : 0
Skipped (treated as error) : 0
Edge jitter error (maybe fixed) : 0
Atom jitter error (maybe fixed) : 0
Drift error (maybe fixed) : 0
Dropped bytes error (maybe fixed) : 0
Duplicated bytes error (maybe fixed) : 0

Track 13
CRC32 hash : C42CFAF5
CRC32 hash (skip zero) : 2D402F08
AccurateRip signature : F4F70B11
->Accurately ripped! (confidence 1)
Statistics
Read error : 0
Skipped (treated as error) : 0
Edge jitter error (maybe fixed) : 0
Atom jitter error (maybe fixed) : 0
Drift error (maybe fixed) : 0
Dropped bytes error (maybe fixed) : 0
Duplicated bytes error (maybe fixed) : 0

Track 14
CRC32 hash : 2904A9D5
CRC32 hash (skip zero) : 9DA8AE71
AccurateRip signature : 993161BA
->Accurately ripped! (confidence 1)
Statistics
Read error : 0
Skipped (treated as error) : 0
Edge jitter error (maybe fixed) : 0
Atom jitter error (maybe fixed) : 0
Drift error (maybe fixed) : 0
Dropped bytes error (maybe fixed) : 0
Duplicated bytes error (maybe fixed) : 0

No errors occurred

End of status report
X Lossless Decoder version 20090320 (105.1)

XLD extraction logfile from 2009-05-01 01:14:25 +0400

Star Performers / Best 100 Carols - CD4

Used drive : OPTIARC DVD RW AD-7170A (revision 1.NC)

Use cdparanoia mode : YES (CDParanoia III 10.2 engine)
Disable audio cache : OK for the drive with cache less than 2750KB
Make use of C2 pointers : NO
Read offset correction : 48
Max retry count : 100

TOC of the extracted CD
Track | Start | Length | Start sector | End sector
––––––––––––––––––––––––––––-
1 | 00:00:00 | 02:42:62 | 0 | 12211
2 | 02:42:62 | 02:48:18 | 12212 | 24829
3 | 05:31:05 | 02:10:15 | 24830 | 34594
4 | 07:41:20 | 02:27:05 | 34595 | 45624
5 | 10:08:25 | 03:30:28 | 45625 | 61402
6 | 13:38:53 | 01:56:38 | 61403 | 70140
7 | 15:35:16 | 03:07:74 | 70141 | 84239
8 | 18:43:15 | 01:55:55 | 84240 | 92919
9 | 20:38:70 | 04:41:60 | 92920 | 114054
10 | 25:20:55 | 03:26:10 | 114055 | 129514
11 | 28:46:65 | 02:39:49 | 129515 | 141488
12 | 31:26:39 | 03:41:51 | 141489 | 158114
13 | 35:08:15 | 02:49:33 | 158115 | 170822
14 | 37:57:48 | 04:45:35 | 170823 | 192232
15 | 42:43:08 | 05:53:21 | 192233 | 218728
16 | 48:36:29 | 03:11:71 | 218729 | 233124
17 | 51:48:25 | 03:15:19 | 233125 | 247768
18 | 55:03:44 | 03:48:60 | 247769 | 264928
19 | 58:52:29 | 02:27:25 | 264929 | 275978
20 | 61:19:54 | 04:17:00 | 275979 | 295253


All Tracks
Filename : /Users/mac/Music/Ripping/100 Best Carols/Best 100 Carols - CD4.flac
CRC32 hash : 5EAB28E2
CRC32 hash (skip zero) : 4971FCFD
Statistics
Read error : 0
Skipped (treated as error) : 0
Edge jitter error (maybe fixed) : 1
Atom jitter error (maybe fixed) : 0
Drift error (maybe fixed) : 0
Dropped bytes error (maybe fixed) : 0
Duplicated bytes error (maybe fixed) : 0

Track 01
CRC32 hash : 5C005A3F
CRC32 hash (skip zero) : 3F049D08
AccurateRip signature : DC702D4D
->Accurately ripped! (confidence 1)
Statistics
Read error : 0
Skipped (treated as error) : 0
Edge jitter error (maybe fixed) : 0
Atom jitter error (maybe fixed) : 0
Drift error (maybe fixed) : 0
Dropped bytes error (maybe fixed) : 0
Duplicated bytes error (maybe fixed) : 0

Track 02
CRC32 hash : 8472615F
CRC32 hash (skip zero) : 0A8D72A9
AccurateRip signature : 52184734
->Accurately ripped! (confidence 1)
Statistics
Read error : 0
Skipped (treated as error) : 0
Edge jitter error (maybe fixed) : 0
Atom jitter error (maybe fixed) : 0
Drift error (maybe fixed) : 0
Dropped bytes error (maybe fixed) : 0
Duplicated bytes error (maybe fixed) : 0

Track 03
CRC32 hash : 8D7BE0EA
CRC32 hash (skip zero) : 8C3CA16D
AccurateRip signature : D8F8EFB7
->Accurately ripped! (confidence 1)
Statistics
Read error : 0
Skipped (treated as error) : 0
Edge jitter error (maybe fixed) : 0
Atom jitter error (maybe fixed) : 0
Drift error (maybe fixed) : 0
Dropped bytes error (maybe fixed) : 0
Duplicated bytes error (maybe fixed) : 0

Track 04
CRC32 hash : 5BA6EE1B
CRC32 hash (skip zero) : AA12BADE
AccurateRip signature : 87C6DB4B
->Accurately ripped! (confidence 1)
Statistics
Read error : 0
Skipped (treated as error) : 0
Edge jitter error (maybe fixed) : 0
Atom jitter error (maybe fixed) : 0
Drift error (maybe fixed) : 0
Dropped bytes error (maybe fixed) : 0
Duplicated bytes error (maybe fixed) : 0

Track 05
CRC32 hash : 39BA96F4
CRC32 hash (skip zero) : AEFCE61F
AccurateRip signature : 419FA2F3
->Accurately ripped! (confidence 1)
Statistics
Read error : 0
Skipped (treated as error) : 0
Edge jitter error (maybe fixed) : 0
Atom jitter error (maybe fixed) : 0
Drift error (maybe fixed) : 0
Dropped bytes error (maybe fixed) : 0
Duplicated bytes error (maybe fixed) : 0

Track 06
CRC32 hash : E86A11CC
CRC32 hash (skip zero) : 56ABD861
AccurateRip signature : 90FA47C9
->Accurately ripped! (confidence 1)
Statistics
Read error : 0
Skipped (treated as error) : 0
Edge jitter error (maybe fixed) : 0
Atom jitter error (maybe fixed) : 0
Drift error (maybe fixed) : 0
Dropped bytes error (maybe fixed) : 0
Duplicated bytes error (maybe fixed) : 0

Track 07
CRC32 hash : D6C54672
CRC32 hash (skip zero) : 2CDA7596
AccurateRip signature : A3E7E658
->Accurately ripped! (confidence 1)
Statistics
Read error : 0
Skipped (treated as error) : 0
Edge jitter error (maybe fixed) : 0
Atom jitter error (maybe fixed) : 0
Drift error (maybe fixed) : 0
Dropped bytes error (maybe fixed) : 0
Duplicated bytes error (maybe fixed) : 0

Track 08
CRC32 hash : C54FD14C
CRC32 hash (skip zero) : A5ECEF69
AccurateRip signature : 1B9D7F46
->Accurately ripped! (confidence 1)
Statistics
Read error : 0
Skipped (treated as error) : 0
Edge jitter error (maybe fixed) : 0
Atom jitter error (maybe fixed) : 0
Drift error (maybe fixed) : 0
Dropped bytes error (maybe fixed) : 0
Duplicated bytes error (maybe fixed) : 0

Track 09
CRC32 hash : A832BA31
CRC32 hash (skip zero) : 53EA02C5
AccurateRip signature : C1B4C093
->Accurately ripped! (confidence 1)
Statistics
Read error : 0
Skipped (treated as error) : 0
Edge jitter error (maybe fixed) : 0
Atom jitter error (maybe fixed) : 0
Drift error (maybe fixed) : 0
Dropped bytes error (maybe fixed) : 0
Duplicated bytes error (maybe fixed) : 0

Track 10
CRC32 hash : E0BC417A
CRC32 hash (skip zero) : 9C9603A5
AccurateRip signature : 5111A391
->Accurately ripped! (confidence 1)
Statistics
Read error : 0
Skipped (treated as error) : 0
Edge jitter error (maybe fixed) : 0
Atom jitter error (maybe fixed) : 0
Drift error (maybe fixed) : 0
Dropped bytes error (maybe fixed) : 0
Duplicated bytes error (maybe fixed) : 0

Track 11
CRC32 hash : BFFD441E
CRC32 hash (skip zero) : F6311AA0
AccurateRip signature : 935668B6
->Accurately ripped! (confidence 1)
Statistics
Read error : 0
Skipped (treated as error) : 0
Edge jitter error (maybe fixed) : 0
Atom jitter error (maybe fixed) : 0
Drift error (maybe fixed) : 0
Dropped bytes error (maybe fixed) : 0
Duplicated bytes error (maybe fixed) : 0

Track 12
CRC32 hash : 870E8C4B
CRC32 hash (skip zero) : CE36E855
AccurateRip signature : 166F7B6A
->Accurately ripped! (confidence 1)
Statistics
Read error : 0
Skipped (treated as error) : 0
Edge jitter error (maybe fixed) : 0
Atom jitter error (maybe fixed) : 0
Drift error (maybe fixed) : 0
Dropped bytes error (maybe fixed) : 0
Duplicated bytes error (maybe fixed) : 0

Track 13
CRC32 hash : D5CE89A5
CRC32 hash (skip zero) : 272BF2AB
AccurateRip signature : 8E114CE6
->Accurately ripped! (confidence 1)
Statistics
Read error : 0
Skipped (treated as error) : 0
Edge jitter error (maybe fixed) : 0
Atom jitter error (maybe fixed) : 0
Drift error (maybe fixed) : 0
Dropped bytes error (maybe fixed) : 0
Duplicated bytes error (maybe fixed) : 0

Track 14
CRC32 hash : 575B8317
CRC32 hash (skip zero) : AEA67EFE
AccurateRip signature : 64C5BC61
->Accurately ripped! (confidence 1)
Statistics
Read error : 0
Skipped (treated as error) : 0
Edge jitter error (maybe fixed) : 1
Atom jitter error (maybe fixed) : 0
Drift error (maybe fixed) : 0
Dropped bytes error (maybe fixed) : 0
Duplicated bytes error (maybe fixed) : 0

Track 15
CRC32 hash : 3368C099
CRC32 hash (skip zero) : 8B0967BD
AccurateRip signature : B78CDF5C
->Accurately ripped! (confidence 1)
Statistics
Read error : 0
Skipped (treated as error) : 0
Edge jitter error (maybe fixed) : 0
Atom jitter error (maybe fixed) : 0
Drift error (maybe fixed) : 0
Dropped bytes error (maybe fixed) : 0
Duplicated bytes error (maybe fixed) : 0

Track 16
CRC32 hash : 5685AAA2
CRC32 hash (skip zero) : E069D9B9
AccurateRip signature : 28B0FEC0
->Accurately ripped! (confidence 1)
Statistics
Read error : 0
Skipped (treated as error) : 0
Edge jitter error (maybe fixed) : 0
Atom jitter error (maybe fixed) : 0
Drift error (maybe fixed) : 0
Dropped bytes error (maybe fixed) : 0
Duplicated bytes error (maybe fixed) : 0

Track 17
CRC32 hash : 6F3FBC53
CRC32 hash (skip zero) : 31DD849F
AccurateRip signature : 47A77E5F
->Accurately ripped! (confidence 1)
Statistics
Read error : 0
Skipped (treated as error) : 0
Edge jitter error (maybe fixed) : 0
Atom jitter error (maybe fixed) : 0
Drift error (maybe fixed) : 0
Dropped bytes error (maybe fixed) : 0
Duplicated bytes error (maybe fixed) : 0

Track 18
CRC32 hash : 736E0976
CRC32 hash (skip zero) : 5194E2E3
AccurateRip signature : 71E2D83A
->Accurately ripped! (confidence 1)
Statistics
Read error : 0
Skipped (treated as error) : 0
Edge jitter error (maybe fixed) : 0
Atom jitter error (maybe fixed) : 0
Drift error (maybe fixed) : 0
Dropped bytes error (maybe fixed) : 0
Duplicated bytes error (maybe fixed) : 0

Track 19
CRC32 hash : 4C0D8D95
CRC32 hash (skip zero) : 05A9D94A
AccurateRip signature : BDA90882
->Accurately ripped! (confidence 1)
Statistics
Read error : 0
Skipped (treated as error) : 0
Edge jitter error (maybe fixed) : 0
Atom jitter error (maybe fixed) : 0
Drift error (maybe fixed) : 0
Dropped bytes error (maybe fixed) : 0
Duplicated bytes error (maybe fixed) : 0

Track 20
CRC32 hash : 596463FF
CRC32 hash (skip zero) : BA84B765
AccurateRip signature : 25BC5815
->Accurately ripped! (confidence 1)
Statistics
Read error : 0
Skipped (treated as error) : 0
Edge jitter error (maybe fixed) : 0
Atom jitter error (maybe fixed) : 0
Drift error (maybe fixed) : 0
Dropped bytes error (maybe fixed) : 0
Duplicated bytes error (maybe fixed) : 0

No errors occurred

End of status report
X Lossless Decoder version 20090320 (105.1)

XLD extraction logfile from 2009-05-01 01:28:52 +0400

Various Artists / 100 Best Carols Five

Used drive : OPTIARC DVD RW AD-7170A (revision 1.NC)

Use cdparanoia mode : YES (CDParanoia III 10.2 engine)
Disable audio cache : OK for the drive with cache less than 2750KB
Make use of C2 pointers : NO
Read offset correction : 48
Max retry count : 100

TOC of the extracted CD
Track | Start | Length | Start sector | End sector
––––––––––––––––––––––––––––-
1 | 00:00:00 | 02:14:72 | 0 | 10121
2 | 02:14:72 | 02:28:18 | 10122 | 21239
3 | 04:43:15 | 03:07:08 | 21240 | 35272
4 | 07:50:23 | 03:09:21 | 35273 | 49468
5 | 10:59:44 | 02:30:12 | 49469 | 60730
6 | 13:29:56 | 02:21:38 | 60731 | 71343
7 | 15:51:19 | 02:34:50 | 71344 | 82943
8 | 18:25:69 | 04:04:11 | 82944 | 101254
9 | 22:30:05 | 03:46:13 | 101255 | 118217
10 | 26:16:18 | 01:42:58 | 118218 | 125925
11 | 27:59:01 | 01:56:32 | 125926 | 134657
12 | 29:55:33 | 02:53:69 | 134658 | 147701
13 | 32:49:27 | 02:55:07 | 147702 | 160833
14 | 35:44:34 | 03:26:05 | 160834 | 176288
15 | 39:10:39 | 03:21:52 | 176289 | 191415
16 | 42:32:16 | 04:43:58 | 191416 | 212698
17 | 47:15:74 | 01:35:09 | 212699 | 219832


All Tracks
Filename : /Users/mac/Music/Ripping/100 Best Carols/100 Best Carols Five.flac
CRC32 hash : B6DAD47C
CRC32 hash (skip zero) : 395742A0
Statistics
Read error : 0
Skipped (treated as error) : 0
Edge jitter error (maybe fixed) : 4
Atom jitter error (maybe fixed) : 2
Drift error (maybe fixed) : 0
Dropped bytes error (maybe fixed) : 1
Duplicated bytes error (maybe fixed) : 2

Track 01
CRC32 hash : 95245816
CRC32 hash (skip zero) : DEF281AB
AccurateRip signature : 9DE5F003
->Accurately ripped! (confidence 1)
Statistics
Read error : 0
Skipped (treated as error) : 0
Edge jitter error (maybe fixed) : 0
Atom jitter error (maybe fixed) : 0
Drift error (maybe fixed) : 0
Dropped bytes error (maybe fixed) : 0
Duplicated bytes error (maybe fixed) : 0

Track 02
CRC32 hash : 4C7F368C
CRC32 hash (skip zero) : BC2EF437
AccurateRip signature : A20A6E40
->Accurately ripped! (confidence 1)
Statistics
Read error : 0
Skipped (treated as error) : 0
Edge jitter error (maybe fixed) : 0
Atom jitter error (maybe fixed) : 0
Drift error (maybe fixed) : 0
Dropped bytes error (maybe fixed) : 0
Duplicated bytes error (maybe fixed) : 0

Track 03
CRC32 hash : CC71557A
CRC32 hash (skip zero) : 96E7D868
AccurateRip signature : 6A7589A4
->Accurately ripped! (confidence 1)
Statistics
Read error : 0
Skipped (treated as error) : 0
Edge jitter error (maybe fixed) : 2
Atom jitter error (maybe fixed) : 1
Drift error (maybe fixed) : 0
Dropped bytes error (maybe fixed) : 0
Duplicated bytes error (maybe fixed) : 1

Track 04
CRC32 hash : 305A3B52
CRC32 hash (skip zero) : 18064C3C
AccurateRip signature : 5A4A5126
->Accurately ripped! (confidence 1)
Statistics
Read error : 0
Skipped (treated as error) : 0
Edge jitter error (maybe fixed) : 0
Atom jitter error (maybe fixed) : 0
Drift error (maybe fixed) : 0
Dropped bytes error (maybe fixed) : 0
Duplicated bytes error (maybe fixed) : 0

Track 05
CRC32 hash : 4DE33229
CRC32 hash (skip zero) : F1ED511B
AccurateRip signature : 6BAC0902
->Accurately ripped! (confidence 1)
Statistics
Read error : 0
Skipped (treated as error) : 0
Edge jitter error (maybe fixed) : 2
Atom jitter error (maybe fixed) : 1
Drift error (maybe fixed) : 0
Dropped bytes error (maybe fixed) : 1
Duplicated bytes error (maybe fixed) : 1

Track 06
CRC32 hash : 2623EC90
CRC32 hash (skip zero) : F18A4141
AccurateRip signature : C3E03E5A
->Accurately ripped! (confidence 1)
Statistics
Read error : 0
Skipped (treated as error) : 0
Edge jitter error (maybe fixed) : 0
Atom jitter error (maybe fixed) : 0
Drift error (maybe fixed) : 0
Dropped bytes error (maybe fixed) : 0
Duplicated bytes error (maybe fixed) : 0

Track 07
CRC32 hash : 6FA2DC66
CRC32 hash (skip zero) : 46F4DB1E
AccurateRip signature : C5A8AB52
->Accurately ripped! (confidence 1)
Statistics
Read error : 0
Skipped (treated as error) : 0
Edge jitter error (maybe fixed) : 0
Atom jitter error (maybe fixed) : 0
Drift error (maybe fixed) : 0
Dropped bytes error (maybe fixed) : 0
Duplicated bytes error (maybe fixed) : 0

Track 08
CRC32 hash : 5C7D1372
CRC32 hash (skip zero) : 05A0FCCF
AccurateRip signature : 0018CE7E
->Accurately ripped! (confidence 1)
Statistics
Read error : 0
Skipped (treated as error) : 0
Edge jitter error (maybe fixed) : 0
Atom jitter error (maybe fixed) : 0
Drift error (maybe fixed) : 0
Dropped bytes error (maybe fixed) : 0
Duplicated bytes error (maybe fixed) : 0

Track 09
CRC32 hash : BE5F5F5D
CRC32 hash (skip zero) : 29DC28A7
AccurateRip signature : 7F014F9C
->Accurately ripped! (confidence 1)
Statistics
Read error : 0
Skipped (treated as error) : 0
Edge jitter error (maybe fixed) : 0
Atom jitter error (maybe fixed) : 0
Drift error (maybe fixed) : 0
Dropped bytes error (maybe fixed) : 0
Duplicated bytes error (maybe fixed) : 0

Track 10
CRC32 hash : 8E212F89
CRC32 hash (skip zero) : BC9A3005
AccurateRip signature : 6668E8E6
->Accurately ripped! (confidence 1)
Statistics
Read error : 0
Skipped (treated as error) : 0
Edge jitter error (maybe fixed) : 0
Atom jitter error (maybe fixed) : 0
Drift error (maybe fixed) : 0
Dropped bytes error (maybe fixed) : 0
Duplicated bytes error (maybe fixed) : 0

Track 11
CRC32 hash : 6BC7C1CE
CRC32 hash (skip zero) : 568DA00B
AccurateRip signature : 6F31A6C2
->Accurately ripped! (confidence 1)
Statistics
Read error : 0
Skipped (treated as error) : 0
Edge jitter error (maybe fixed) : 0
Atom jitter error (maybe fixed) : 0
Drift error (maybe fixed) : 0
Dropped bytes error (maybe fixed) : 0
Duplicated bytes error (maybe fixed) : 0

Track 12
CRC32 hash : ABC67BA3
CRC32 hash (skip zero) : 1D24E098
AccurateRip signature : 493EA682
->Accurately ripped! (confidence 1)
Statistics
Read error : 0
Skipped (treated as error) : 0
Edge jitter error (maybe fixed) : 0
Atom jitter error (maybe fixed) : 0
Drift error (maybe fixed) : 0
Dropped bytes error (maybe fixed) : 0
Duplicated bytes error (maybe fixed) : 0

Track 13
CRC32 hash : E3A24131
CRC32 hash (skip zero) : 93A0E35F
AccurateRip signature : 98AADB6D
->Accurately ripped! (confidence 1)
Statistics
Read error : 0
Skipped (treated as error) : 0
Edge jitter error (maybe fixed) : 0
Atom jitter error (maybe fixed) : 0
Drift error (maybe fixed) : 0
Dropped bytes error (maybe fixed) : 0
Duplicated bytes error (maybe fixed) : 0

Track 14
CRC32 hash : D30B5301
CRC32 hash (skip zero) : DCC3DCE4
AccurateRip signature : 3F9FE88B
->Accurately ripped! (confidence 1)
Statistics
Read error : 0
Skipped (treated as error) : 0
Edge jitter error (maybe fixed) : 0
Atom jitter error (maybe fixed) : 0
Drift error (maybe fixed) : 0
Dropped bytes error (maybe fixed) : 0
Duplicated bytes error (maybe fixed) : 0

Track 15
CRC32 hash : 59FC3C39
CRC32 hash (skip zero) : 98ADDD7D
AccurateRip signature : 4F232D64
->Accurately ripped! (confidence 1)
Statistics
Read error : 0
Skipped (treated as error) : 0
Edge jitter error (maybe fixed) : 0
Atom jitter error (maybe fixed) : 0
Drift error (maybe fixed) : 0
Dropped bytes error (maybe fixed) : 0
Duplicated bytes error (maybe fixed) : 0

Track 16
CRC32 hash : CA90C18B
CRC32 hash (skip zero) : B411AADE
AccurateRip signature : 03B13205
->Accurately ripped! (confidence 1)
Statistics
Read error : 0
Skipped (treated as error) : 0
Edge jitter error (maybe fixed) : 0
Atom jitter error (maybe fixed) : 0
Drift error (maybe fixed) : 0
Dropped bytes error (maybe fixed) : 0
Duplicated bytes error (maybe fixed) : 0

Track 17
CRC32 hash : 92426CD3
CRC32 hash (skip zero) : CA4ACC73
AccurateRip signature : 41CCE81A
->Accurately ripped! (confidence 1)
Statistics
Read error : 0
Skipped (treated as error) : 0
Edge jitter error (maybe fixed) : 0
Atom jitter error (maybe fixed) : 0
Drift error (maybe fixed) : 0
Dropped bytes error (maybe fixed) : 0
Duplicated bytes error (maybe fixed) : 0

No errors occurred

End of status report
X Lossless Decoder version 20090320 (105.1)

XLD extraction logfile from 2009-05-01 01:48:16 +0400

Various Artists / 100 Best Carols Six

Used drive : OPTIARC DVD RW AD-7170A (revision 1.NC)

Use cdparanoia mode : YES (CDParanoia III 10.2 engine)
Disable audio cache : OK for the drive with cache less than 2750KB
Make use of C2 pointers : NO
Read offset correction : 48
Max retry count : 100

TOC of the extracted CD
Track | Start | Length | Start sector | End sector
––––––––––––––––––––––––––––-
1 | 00:00:00 | 01:53:33 | 0 | 8507
2 | 01:53:33 | 02:20:45 | 8508 | 19052
3 | 04:14:03 | 03:09:03 | 19053 | 33230
4 | 07:23:06 | 02:33:10 | 33231 | 44715
5 | 09:56:16 | 02:51:11 | 44716 | 57551
6 | 12:47:27 | 02:16:69 | 57552 | 67820
7 | 15:04:21 | 05:09:62 | 67821 | 91057
8 | 20:14:08 | 01:59:42 | 91058 | 100024
9 | 22:13:50 | 03:43:11 | 100025 | 116760
10 | 25:56:61 | 03:42:04 | 116761 | 133414
11 | 29:38:65 | 02:55:04 | 133415 | 146543
12 | 32:33:69 | 03:21:20 | 146544 | 161638
13 | 35:55:14 | 03:50:36 | 161639 | 178924
14 | 39:45:50 | 03:14:28 | 178925 | 193502
15 | 43:00:03 | 02:38:56 | 193503 | 205408
16 | 45:38:59 | 02:05:36 | 205409 | 214819
17 | 47:44:20 | 04:46:48 | 214820 | 236317


All Tracks
Filename : /Users/mac/Music/Ripping/100 Best Carols/100 Best Carols Six.flac
CRC32 hash : 6B990511
CRC32 hash (skip zero) : 50F33663
Statistics
Read error : 0
Skipped (treated as error) : 0
Edge jitter error (maybe fixed) : 2
Atom jitter error (maybe fixed) : 1
Drift error (maybe fixed) : 0
Dropped bytes error (maybe fixed) : 0
Duplicated bytes error (maybe fixed) : 1

Track 01
CRC32 hash : 80D7F279
CRC32 hash (skip zero) : 2D944391
AccurateRip signature : A8B449AA
->Accurately ripped! (confidence 1)
Statistics
Read error : 0
Skipped (treated as error) : 0
Edge jitter error (maybe fixed) : 0
Atom jitter error (maybe fixed) : 0
Drift error (maybe fixed) : 0
Dropped bytes error (maybe fixed) : 0
Duplicated bytes error (maybe fixed) : 0

Track 02
CRC32 hash : AE7BA10D
CRC32 hash (skip zero) : 0BBF2E95
AccurateRip signature : 38835570
->Accurately ripped! (confidence 1)
Statistics
Read error : 0
Skipped (treated as error) : 0
Edge jitter error (maybe fixed) : 0
Atom jitter error (maybe fixed) : 0
Drift error (maybe fixed) : 0
Dropped bytes error (maybe fixed) : 0
Duplicated bytes error (maybe fixed) : 0

Track 03
CRC32 hash : 15F71B6F
CRC32 hash (skip zero) : CC9CE402
AccurateRip signature : BB9E88C7
->Accurately ripped! (confidence 1)
Statistics
Read error : 0
Skipped (treated as error) : 0
Edge jitter error (maybe fixed) : 0
Atom jitter error (maybe fixed) : 0
Drift error (maybe fixed) : 0
Dropped bytes error (maybe fixed) : 0
Duplicated bytes error (maybe fixed) : 0

Track 04
CRC32 hash : 1A0B6A25
CRC32 hash (skip zero) : 97AEEB40
AccurateRip signature : C15FA046
->Accurately ripped! (confidence 1)
Statistics
Read error : 0
Skipped (treated as error) : 0
Edge jitter error (maybe fixed) : 0
Atom jitter error (maybe fixed) : 0
Drift error (maybe fixed) : 0
Dropped bytes error (maybe fixed) : 0
Duplicated bytes error (maybe fixed) : 0

Track 05
CRC32 hash : DFDE0BAA
CRC32 hash (skip zero) : 97DB1F53
AccurateRip signature : CF4783E2
->Accurately ripped! (confidence 1)
Statistics
Read error : 0
Skipped (treated as error) : 0
Edge jitter error (maybe fixed) : 0
Atom jitter error (maybe fixed) : 0
Drift error (maybe fixed) : 0
Dropped bytes error (maybe fixed) : 0
Duplicated bytes error (maybe fixed) : 0

Track 06
CRC32 hash : A4F29380
CRC32 hash (skip zero) : A458D032
AccurateRip signature : 8DA180F4
->Accurately ripped! (confidence 1)
Statistics
Read error : 0
Skipped (treated as error) : 0
Edge jitter error (maybe fixed) : 0
Atom jitter error (maybe fixed) : 0
Drift error (maybe fixed) : 0
Dropped bytes error (maybe fixed) : 0
Duplicated bytes error (maybe fixed) : 0

Track 07
CRC32 hash : 6D94A9BD
CRC32 hash (skip zero) : 74268A2D
AccurateRip signature : E876D183
->Accurately ripped! (confidence 1)
Statistics
Read error : 0
Skipped (treated as error) : 0
Edge jitter error (maybe fixed) : 0
Atom jitter error (maybe fixed) : 0
Drift error (maybe fixed) : 0
Dropped bytes error (maybe fixed) : 0
Duplicated bytes error (maybe fixed) : 0

Track 08
CRC32 hash : DCCF800C
CRC32 hash (skip zero) : 5B9ECB56
AccurateRip signature : A398C7FE
->Accurately ripped! (confidence 1)
Statistics
Read error : 0
Skipped (treated as error) : 0
Edge jitter error (maybe fixed) : 0
Atom jitter error (maybe fixed) : 0
Drift error (maybe fixed) : 0
Dropped bytes error (maybe fixed) : 0
Duplicated bytes error (maybe fixed) : 0

Track 09
CRC32 hash : D9DFC1C5
CRC32 hash (skip zero) : 119D1A5F
AccurateRip signature : D0783D3B
->Accurately ripped! (confidence 1)
Statistics
Read error : 0
Skipped (treated as error) : 0
Edge jitter error (maybe fixed) : 0
Atom jitter error (maybe fixed) : 0
Drift error (maybe fixed) : 0
Dropped bytes error (maybe fixed) : 0
Duplicated bytes error (maybe fixed) : 0

Track 10
CRC32 hash : C7ABB5F1
CRC32 hash (skip zero) : 07335E7F
AccurateRip signature : 2F92ACBA
->Accurately ripped! (confidence 1)
Statistics
Read error : 0
Skipped (treated as error) : 0
Edge jitter error (maybe fixed) : 0
Atom jitter error (maybe fixed) : 0
Drift error (maybe fixed) : 0
Dropped bytes error (maybe fixed) : 0
Duplicated bytes error (maybe fixed) : 0

Track 11
CRC32 hash : B9CD598E
CRC32 hash (skip zero) : 463A0E94
AccurateRip signature : F6AC57E9
->Accurately ripped! (confidence 1)
Statistics
Read error : 0
Skipped (treated as error) : 0
Edge jitter error (maybe fixed) : 2
Atom jitter error (maybe fixed) : 1
Drift error (maybe fixed) : 0
Dropped bytes error (maybe fixed) : 0
Duplicated bytes error (maybe fixed) : 1

Track 12
CRC32 hash : D410EC8E
CRC32 hash (skip zero) : C1FC43E2
AccurateRip signature : 7257C08C
->Accurately ripped! (confidence 1)
Statistics
Read error : 0
Skipped (treated as error) : 0
Edge jitter error (maybe fixed) : 0
Atom jitter error (maybe fixed) : 0
Drift error (maybe fixed) : 0
Dropped bytes error (maybe fixed) : 0
Duplicated bytes error (maybe fixed) : 0

Track 13
CRC32 hash : 2E8F9727
CRC32 hash (skip zero) : 2E24895A
AccurateRip signature : E8B0F7ED
->Accurately ripped! (confidence 1)
Statistics
Read error : 0
Skipped (treated as error) : 0
Edge jitter error (maybe fixed) : 0
Atom jitter error (maybe fixed) : 0
Drift error (maybe fixed) : 0
Dropped bytes error (maybe fixed) : 0
Duplicated bytes error (maybe fixed) : 0

Track 14
CRC32 hash : 6C12EF57
CRC32 hash (skip zero) : 1E7DC413
AccurateRip signature : C7BA842A
->Accurately ripped! (confidence 1)
Statistics
Read error : 0
Skipped (treated as error) : 0
Edge jitter error (maybe fixed) : 0
Atom jitter error (maybe fixed) : 0
Drift error (maybe fixed) : 0
Dropped bytes error (maybe fixed) : 0
Duplicated bytes error (maybe fixed) : 0

Track 15
CRC32 hash : 0CE7D758
CRC32 hash (skip zero) : 2CB3B399
AccurateRip signature : C4DA1F63
->Accurately ripped! (confidence 1)
Statistics
Read error : 0
Skipped (treated as error) : 0
Edge jitter error (maybe fixed) : 0
Atom jitter error (maybe fixed) : 0
Drift error (maybe fixed) : 0
Dropped bytes error (maybe fixed) : 0
Duplicated bytes error (maybe fixed) : 0

Track 16
CRC32 hash : 5E5BF44E
CRC32 hash (skip zero) : 96BBBCB9
AccurateRip signature : FC740443
->Accurately ripped! (confidence 1)
Statistics
Read error : 0
Skipped (treated as error) : 0
Edge jitter error (maybe fixed) : 0
Atom jitter error (maybe fixed) : 0
Drift error (maybe fixed) : 0
Dropped bytes error (maybe fixed) : 0
Duplicated bytes error (maybe fixed) : 0

Track 17
CRC32 hash : 068AD0D0
CRC32 hash (skip zero) : 4DFA12A3
AccurateRip signature : 8C495E44
->Accurately ripped! (confidence 1)
Statistics
Read error : 0
Skipped (treated as error) : 0
Edge jitter error (maybe fixed) : 0
Atom jitter error (maybe fixed) : 0
Drift error (maybe fixed) : 0
Dropped bytes error (maybe fixed) : 0
Duplicated bytes error (maybe fixed) : 0

No errors occurred

End of status report



Fileserve

Filesonic

My Blog

NO MIRRORS, PLEASE