Subcategories

101 South - Roll Of The Dice (2002)

Posted By: Andi_Deris
101 South - Roll Of The Dice (2002)

101 South - Roll Of The Dice (2002)
EAC Rip | FLAC: Tracks+Cue+Log | 364 Mb | MP3 CBR 320 kbps | 116 Mb | Time: 49:33
Atenzia Records | ATZ 02002
Melodic Rock, AOR

After the success of the first 101 South CD in the year 2000, Producer ROGER SCOTT CRAIG and vocalist GREGORY LYNN HALL teamed up again in 2002 to record another classic album called ROLL OF THE DICE. Placed in the top ten by many rock journalist's 'album of the year' throughout Europe in 2002, this album has everything for those who love melodic rock. Compared to bands like Foreigner and Journey this CD flows with great melodies, guitar solos and exceptional vocals and production.

101 South - Roll Of The Dice (2002)




Track Listing

01. What's Your Game? (04:52)
02. Don't You Stop Believing (04:45)
03. Dark Cloud On The Horizon (04:34)
04. Borderline (04:48)
05. Standing In The Spotlight (04:14)
06. Roll Of The Dice (03:46)
07. Ride Out The Storm (04:17)
08. Dance Through The Night (04:34)
09. I'll Never Forget You (04:19)
10. Black Isn't Black (04:26)
11. Get Up And Go (04:57)

Produced by Roger Scott Craig

The Band

• Gregory Lynn Hall - Vocals
• Roger Scott Craig - Keyboards, Vocals

*****
• Billy Liesegang, Mike Turner, David Pasillas - guitars
• Chris Julian - bass
• Hans Geiger - drums

Exact Audio Copy V0.99 prebeta 4 from 23. January 2008

EAC extraction logfile from 10. August 2009, 12:31

101 South / Roll of the Dice

Used drive : LITE-ON DVDRW SHW-160P6S Adapter: 1 ID: 0

Read mode : Secure
Utilize accurate stream : Yes
Defeat audio cache : Yes
Make use of C2 pointers : No

Read offset correction : 6
Overread into Lead-In and Lead-Out : No
Fill up missing offset samples with silence : Yes
Delete leading and trailing silent blocks : No
Null samples used in CRC calculations : Yes
Used interface : Native Win32 interface for Win NT & 2000
Gap handling : Appended to previous track

Used output format : Internal WAV Routines
Sample format : 44.100 Hz; 16 Bit; Stereo


TOC of the extracted CD

Track | Start | Length | Start sector | End sector
––––––––––––––––––––––––––––-
1 | 0:00.00 | 4:51.52 | 0 | 21876
2 | 4:51.52 | 4:44.42 | 21877 | 43218
3 | 9:36.19 | 4:34.21 | 43219 | 63789
4 | 14:10.40 | 4:48.28 | 63790 | 85417
5 | 18:58.68 | 4:14.06 | 85418 | 104473
6 | 23:12.74 | 3:46.25 | 104474 | 121448
7 | 26:59.24 | 4:17.10 | 121449 | 140733
8 | 31:16.34 | 4:33.55 | 140734 | 161263
9 | 35:50.14 | 4:18.50 | 161264 | 180663
10 | 40:08.64 | 4:26.30 | 180664 | 200643
11 | 44:35.19 | 4:57.13 | 200644 | 222931


Track 1

Filename C:\Documents and Settings\user1\My Documents\My Music\101 South - 01 - What's Your Game .wav

Pre-gap length 0:00:02.00

Peak level 98.2 %
Track quality 100.0 %
Test CRC C2E001B4
Copy CRC C2E001B4
Track not present in AccurateRip database
Copy OK

Track 2

Filename C:\Documents and Settings\user1\My Documents\My Music\101 South - 02 - Don't You Stop Believing.wav

Pre-gap length 0:00:01.98

Peak level 100.0 %
Track quality 99.9 %
Test CRC 6504BE93
Copy CRC 6504BE93
Track not present in AccurateRip database
Copy OK

Track 3

Filename C:\Documents and Settings\user1\My Documents\My Music\101 South - 03 - Dark Cloud on the Horizon.wav

Pre-gap length 0:00:01.98

Peak level 100.0 %
Track quality 99.9 %
Test CRC 8DF11F30
Copy CRC 8DF11F30
Track not present in AccurateRip database
Copy OK

Track 4

Filename C:\Documents and Settings\user1\My Documents\My Music\101 South - 04 - Borderline.wav

Pre-gap length 0:00:01.98

Peak level 100.0 %
Track quality 100.0 %
Test CRC E867E140
Copy CRC E867E140
Track not present in AccurateRip database
Copy OK

Track 5

Filename C:\Documents and Settings\user1\My Documents\My Music\101 South - 05 - Standing in the Spotlight.wav

Pre-gap length 0:00:01.98

Peak level 100.0 %
Track quality 100.0 %
Test CRC F6A05297
Copy CRC F6A05297
Track not present in AccurateRip database
Copy OK

Track 6

Filename C:\Documents and Settings\user1\My Documents\My Music\101 South - 06 - Roll of the Dice.wav

Pre-gap length 0:00:01.98

Peak level 100.0 %
Track quality 100.0 %
Test CRC 986E30BC
Copy CRC 986E30BC
Track not present in AccurateRip database
Copy OK

Track 7

Filename C:\Documents and Settings\user1\My Documents\My Music\101 South - 07 - Ride Out the Storm.wav

Pre-gap length 0:00:01.98

Peak level 100.0 %
Track quality 100.0 %
Test CRC 17D62F47
Copy CRC 17D62F47
Track not present in AccurateRip database
Copy OK

Track 8

Filename C:\Documents and Settings\user1\My Documents\My Music\101 South - 08 - Dance Through the Night.wav

Pre-gap length 0:00:01.98

Peak level 100.0 %
Track quality 100.0 %
Test CRC 11B43EBE
Copy CRC 11B43EBE
Track not present in AccurateRip database
Copy OK

Track 9

Filename C:\Documents and Settings\user1\My Documents\My Music\101 South - 09 - I'll Never Forget You.wav

Pre-gap length 0:00:01.98

Peak level 100.0 %
Track quality 99.9 %
Test CRC F03DF65E
Copy CRC F03DF65E
Track not present in AccurateRip database
Copy OK

Track 10

Filename C:\Documents and Settings\user1\My Documents\My Music\101 South - 10 - Black Isn't Black.wav

Pre-gap length 0:00:01.98

Peak level 100.0 %
Track quality 99.9 %
Test CRC AC0DA00F
Copy CRC AC0DA00F
Track not present in AccurateRip database
Copy OK

Track 11

Filename C:\Documents and Settings\user1\My Documents\My Music\101 South - 11 - Get Up and Go.wav

Pre-gap length 0:00:01.97

Peak level 100.0 %
Track quality 99.9 %
Test CRC 03265FF0
Copy CRC 03265FF0
Track not present in AccurateRip database
Copy OK


None of the tracks are present in the AccurateRip database

No errors occurred

End of status report


Many thanks to the original uploader: Sirius67