Tags
Language
Tags

101 Strings Orchestra – 101 Strings Play A Tribute To The Beatles (1996)

Posted By: Rtax
101 Strings Orchestra – 101 Strings Play A Tribute To The Beatles (1996)

101 Strings Orchestra – 101 Strings Play A Tribute To The Beatles (1996)
EAC Rip | FLAC (tracks, cue, log) - 159 MB | 00:31:39
Pop, Orchestral, Easy Listening, Instrumental | Label: Madacy Entertainment AL-2-2422

101 Strings Orchestra was a brand for a highly successful easy listening symphonic music organization, with a discography exceeding a hundred albums and a creative lifetime of roughly thirty years. Their LPs were individualized by the slogan "The Sound of Magnificence", a puffy cloud logo and sepia-toned photo of the orchestra. The 101 Strings orchestra was composed of 124 string instruments (all male except for the harpist) and was conducted by Wilhelm Stephan. The orchestra's famous official photograph was taken in the Musikhalle Hamburg.

Tracklist

1 A Hard Day's Night 2:53
2 Penny Lane 2:42
3 Yesterday 4:31
4 She Loves You 2:14
5 All You Need Is Love 2:23
6 I Want To Hold Your Hand 2:35
7 Eleanor Rigby 2:29
8 Hey Jude 4:10
9 Lucy In The Sky With Diamonds 2:53
10 Michelle 3:44
Exact Audio Copy V1.0 beta 3 from 29. August 2011

EAC extraction logfile from 19. August 2013, 21:56

101 Strings / 101 Strings Play tribute To The Beatles

Used drive : HL-DT-STDVDRAM GSA-T40N Adapter: 0 ID: 0

Read mode : Secure
Utilize accurate stream : Yes
Defeat audio cache : Yes
Make use of C2 pointers : No

Read offset correction : 667
Overread into Lead-In and Lead-Out : No
Fill up missing offset samples with silence : Yes
Delete leading and trailing silent blocks : No
Null samples used in CRC calculations : Yes
Used interface : Native Win32 interface for Win NT & 2000
Gap handling : Appended to previous track

Used output format : User Defined Encoder
Selected bitrate : 896 kBit/s
Quality : High
Add ID3 tag : No
Command line compressor : C:\Program Files\Exact Audio Copy\FLAC\FLAC.EXE
Additional command line options : -8 -V -T "ARTIST=%artist%" -T "TITLE=%title%" -T "ALBUM=%albumtitle%" -T "DATE=%year%" -T "TRACKNUMBER=%tracknr%" -T "GENRE=%genre%" -T "COMMENT=%comment%" -T "BAND=%albuminterpret%" -T "ALBUMARTIST=%albuminterpret%" -T "COMPOSER=%composer%" %haslyrics%–tag-from-file=LYRICS="%lyricsfile%"%haslyrics% -T "DISCNUMBER=%cdnumber%" -T "TOTALDISCS=%totalcds%" -T "TOTALTRACKS=%numtracks%" %hascover%–picture="%coverfile%"%hascover% %source% -o %dest%


TOC of the extracted CD

Track | Start | Length | Start sector | End sector
––––––––––––––––––––––––––––-
1 | 0:00.00 | 2:54.47 | 0 | 13096
2 | 2:54.47 | 2:44.63 | 13097 | 25459
3 | 5:39.35 | 4:35.39 | 25460 | 46123
4 | 10:14.74 | 2:09.27 | 46124 | 55825
5 | 12:24.26 | 2:22.02 | 55826 | 66477
6 | 14:46.28 | 2:36.24 | 66478 | 78201
7 | 17:22.52 | 2:24.02 | 78202 | 89003
8 | 19:46.54 | 4:13.03 | 89004 | 107981
9 | 23:59.57 | 3:54.33 | 107982 | 125564
10 | 27:54.15 | 3:45.19 | 125565 | 142458


Track 1

Filename H:\MY EAC[.FLAC]\101 Strings - Play tribute To The Beatles\(1) A Hard Day's Night - 101 Strings.flac

Pre-gap length 0:00:02.00

Peak level 88.9 %
Extraction speed 1.7 X
Track quality 99.9 %
Test CRC 2AF5F451
Copy CRC 2AF5F451
Track not present in AccurateRip database
Copy OK

Track 2

Filename H:\MY EAC[.FLAC]\101 Strings - Play tribute To The Beatles\(2) Penny Lane - 101 Strings.flac

Pre-gap length 0:00:02.00

Peak level 88.6 %
Extraction speed 1.8 X
Track quality 100.0 %
Test CRC 0829CC41
Copy CRC 0829CC41
Track not present in AccurateRip database
Copy OK

Track 3

Filename H:\MY EAC[.FLAC]\101 Strings - Play tribute To The Beatles\(3) Yesterday - 101 Strings.flac

Pre-gap length 0:00:02.00

Peak level 79.0 %
Extraction speed 2.3 X
Track quality 99.9 %
Test CRC 45BD1CBC
Copy CRC 45BD1CBC
Track not present in AccurateRip database
Copy OK

Track 4

Filename H:\MY EAC[.FLAC]\101 Strings - Play tribute To The Beatles\(4) She Loves You - 101 Strings.flac

Pre-gap length 0:00:02.00

Peak level 79.0 %
Extraction speed 2.3 X
Track quality 100.0 %
Test CRC 0686F993
Copy CRC 0686F993
Track not present in AccurateRip database
Copy OK

Track 5

Filename H:\MY EAC[.FLAC]\101 Strings - Play tribute To The Beatles\(5) All You Need Is Love - 101 Strings.flac

Pre-gap length 0:00:02.00

Peak level 79.1 %
Extraction speed 2.5 X
Track quality 100.0 %
Test CRC 8EFFB91A
Copy CRC 8EFFB91A
Track not present in AccurateRip database
Copy OK

Track 6

Filename H:\MY EAC[.FLAC]\101 Strings - Play tribute To The Beatles\(6) I Want To Hold Your Hand - 101 Strings.flac

Pre-gap length 0:00:02.00

Peak level 83.4 %
Extraction speed 2.6 X
Track quality 100.0 %
Test CRC 45C56488
Copy CRC 45C56488
Track not present in AccurateRip database
Copy OK

Track 7

Filename H:\MY EAC[.FLAC]\101 Strings - Play tribute To The Beatles\(7) Eleanor Rigby - 101 Strings.flac

Pre-gap length 0:00:02.00

Peak level 76.2 %
Extraction speed 2.7 X
Track quality 100.0 %
Test CRC 2010B1B0
Copy CRC 2010B1B0
Track not present in AccurateRip database
Copy OK

Track 8

Filename H:\MY EAC[.FLAC]\101 Strings - Play tribute To The Beatles\(8) Hey Jude - 101 Strings.flac

Pre-gap length 0:00:02.00

Peak level 88.6 %
Extraction speed 3.0 X
Track quality 100.0 %
Test CRC 11E40D52
Copy CRC 11E40D52
Track not present in AccurateRip database
Copy OK

Track 9

Filename H:\MY EAC[.FLAC]\101 Strings - Play tribute To The Beatles\(9) Lucy In The Sky With Diamonds - 101 Strings.flac

Pre-gap length 0:00:02.00

Peak level 79.1 %
Extraction speed 3.2 X
Track quality 100.0 %
Test CRC A77DAF49
Copy CRC A77DAF49
Track not present in AccurateRip database
Copy OK

Track 10

Filename H:\MY EAC[.FLAC]\101 Strings - Play tribute To The Beatles\(10) Michelle - 101 Strings.flac

Pre-gap length 0:00:02.00

Peak level 79.0 %
Extraction speed 1.8 X
Track quality 100.0 %
Test CRC 8B2698D7
Copy CRC 8B2698D7
Track not present in AccurateRip database
Copy OK


None of the tracks are present in the AccurateRip database

No errors occurred

End of status report

==== Log checksum 5C218C3D54E070B341ACDD348E38E0F2FCADD30E06CF04220F51CAE32112E3D4 ====