Subcategories

111 Years of Deutsche Grammophon. The Collectors' Edition 2 [Deutsche Grammophon, 000289 477 9142 3] - Part 1 RE-UP

Posted By: v3122
111 Years of Deutsche Grammophon. The Collectors' Edition 2 [Deutsche Grammophon, 000289 477 9142 3] - Part 1 RE-UP

111 Years of Deutsche Grammophon. The Collectors' Edition 2 (2010)
Discs 1 of 10 of 56 | Classical | EAC Rip | Flac(Image) + Cue + Log | MP3 CBR 320Kbps
Covers Included | Deutsche Grammophon, 000289 477 9142 3 | ~2882 + 1671 Mb

Given the depth, range and quality of the Deutsche Grammophon catalogue, it’s hardly been difficult to put together another anthology of great recordings and great artists. The structure is as before – here are 53 original albums (including three double-sets), featuring the great names of Deutsche Grammophon’s recording history, presented, once more, in alphabetical order of artist. Claudio Abbado leads off with a complete Carmen and Krystian Zimerman rounds off with his memorable account of the Chopin Ballades.

111 Years of Deutsche Grammophon. The Collectors' Edition 2 [Deutsche Grammophon, 000289 477 9142 3] - Part 1 RE-UP

CD-01 - Bizet: Carmen / Act 1 & 2 (Beginning)

Tracklist:

01. Prelude [03:31]

Act I
02. Sur la place chacun passe [Soldats, Morales] [02:09]
03. Regardez donc cette petite [Morales, SOldats, Micala] [04:09]
04. Avec la garde montante [les gamins] [02:34]
05. Repos! [Zuniga, Morales, Don Jose] [00:45]
06. Allons! Allons! [Zuniga, les gamins] [01:37]
07. Dites-moi, brigadier [Zuniga, Don Jose] [01:06]
08. La cloche a sonne [Jeunes Gens, Soldats, Cigarieres] [05:12]
09. Mais nous ne voyons pas la Carmencita [Soldats, Jeunes Gens] [00:45]
10. Quand je vous aimerai - L'amour est un oiseau rebelle [Carmen] [04:49]
11. Carmen, sur tes pas nous nous pressons tous [Jeunes Gens, Cigarieres, Don Jose] [02:24]
12. Monsieur le brigadier [Micala, Don Jose] [01:41]
13. Votre mere avec moi sortait de la chapelle [Micala, Don Jose] [02:19]
14. Ma mere, je la vois… [Don Jose, Micala] [02:24]
15. Que son fits l'aime et la venere [Don Jose, Micala] - Eh bien, eh bien! [Zuniga] [04:04]
16. Au secours! [Cigarieres, Zuniga, Soldats] [03:19]
17. Voyons, Brigadier… [Zuniga, Don Jose] [04:14]
18. Pres des remparts de Sevile [Carmen, Don Jose] [04:29]
19. Le lieutenant!…Prenez garde! [Don Jose, ZUniga, Carmen] [02:06]
20. Entr'acte [01:47]

Act II
21. Les tringles des sistres tintaient [Carmen, Mercedes, Frasquita] [05:06]
22. Vous avez quelque chose a nous dire [Ensemble] [01:15]
23. Tout est bien alors [Carmen, Zuniga] - Vivat! vivat le torero! [Ensemble] [01:31]
24. Votre toast!…je peux vous le rendre [Escamillo, Ensemble] [08:00]
25. Nous avons en tete une affaire [Ensemble] [04:49]
26. Amoureuse…ce n'est pas une raison, cela - Halte-lea Qui va lea [Ensemble] [02:33]

Personnel:

Berganza · Domingo · Milnes
Cotrubas · Kenny · Nafé · Lloyd
Ambrosian Singers
George Watson's College
Boys' Chorus
London Symphony Orchestra
Claudio Abbado

Exact Audio Copy V1.0 beta 1 from 15. November 2010

EAC extraction logfile from 28. December 2010, 2:43

Georges Bizet / Carmen - Act 1 & 2 (Beginning)

Used drive : TSSTcorpCD/DVDW SH-S182M Adapter: 0 ID: 1

Read mode : Secure
Utilize accurate stream : Yes
Defeat audio cache : Yes
Make use of C2 pointers : No

Read offset correction : 6
Overread into Lead-In and Lead-Out : No
Fill up missing offset samples with silence : Yes
Delete leading and trailing silent blocks : No
Null samples used in CRC calculations : Yes
Used interface : Installed external ASPI interface
Gap handling : Appended to previous track

Used output format : User Defined Encoder
Selected bitrate : 768 kBit/s
Quality : High
Add ID3 tag : No
Command line compressor : C:\Programme\Exact Audio Copy\FLAC\FLAC.EXE
Additional command line options : -V -8 -T "artist=%a" -T "title=%t" -T "album=%g" -T "date=%y" -T "tracknumber=%n" -T "genre=%m" %s


TOC of the extracted CD

Track | Start | Length | Start sector | End sector
––––––––––––––––––––––––––––-
1 | 0:00.00 | 3:31.15 | 0 | 15839
2 | 3:31.15 | 2:09.63 | 15840 | 25577
3 | 5:41.03 | 4:09.12 | 25578 | 44264
4 | 9:50.15 | 2:34.24 | 44265 | 55838
5 | 12:24.39 | 0:45.24 | 55839 | 59237
6 | 13:09.63 | 1:37.42 | 59238 | 66554
7 | 14:47.30 | 1:06.64 | 66555 | 71568
8 | 15:54.19 | 5:12.23 | 71569 | 94991
9 | 21:06.42 | 0:45.03 | 94992 | 98369
10 | 21:51.45 | 4:49.59 | 98370 | 120103
11 | 26:41.29 | 2:24.24 | 120104 | 130927
12 | 29:05.53 | 1:41.63 | 130928 | 138565
13 | 30:47.41 | 2:19.32 | 138566 | 149022
14 | 33:06.73 | 2:24.63 | 149023 | 159885
15 | 35:31.61 | 4:04.03 | 159886 | 178188
16 | 39:35.64 | 3:19.36 | 178189 | 193149
17 | 42:55.25 | 4:14.02 | 193150 | 212201
18 | 47:09.27 | 4:29.70 | 212202 | 232446
19 | 51:39.22 | 2:16.53 | 232447 | 242699
20 | 53:56.00 | 1:47.41 | 242700 | 250765
21 | 55:43.41 | 5:06.19 | 250766 | 273734
22 | 60:49.60 | 1:15.65 | 273735 | 279424
23 | 62:05.50 | 1:31.26 | 279425 | 286275
24 | 63:37.01 | 8:00.49 | 286276 | 322324
25 | 71:37.50 | 4:49.01 | 322325 | 344000
26 | 76:26.51 | 2:33.24 | 344001 | 355499


Track 1

Filename O:\Klassik\111 Years Of Deutsche Grammophon - The Collector's Edition 2 (56 CD)\01 - Abbado - Bizet - Carmen - Part 1\01 - Overture (Prelude).wav

Pre-gap length 0:00:02.00

Peak level 91.6 %
Extraction speed 3.7 X
Track quality 99.9 %
Test CRC CDBF8655
Copy CRC CDBF8655
Accurately ripped (confidence 25) [343E4984]
Copy OK

Track 2

Filename O:\Klassik\111 Years Of Deutsche Grammophon - The Collector's Edition 2 (56 CD)\01 - Abbado - Bizet - Carmen - Part 1\02 - Act 1 - Introduction- ''Sur la place chacun passe''.wav

Peak level 68.7 %
Extraction speed 3.6 X
Track quality 99.9 %
Test CRC 07CF868C
Copy CRC 07CF868C
Accurately ripped (confidence 25) [1E41F620]
Copy OK

Track 3

Filename O:\Klassik\111 Years Of Deutsche Grammophon - The Collector's Edition 2 (56 CD)\01 - Abbado - Bizet - Carmen - Part 1\03 - Act 1 - Regardez donc cette petite (Moralès, Les Soldats, Micaela).wav

Peak level 70.5 %
Extraction speed 5.2 X
Track quality 100.0 %
Test CRC 95117EEF
Copy CRC 95117EEF
Accurately ripped (confidence 25) [720E0388]
Copy OK

Track 4

Filename O:\Klassik\111 Years Of Deutsche Grammophon - The Collector's Edition 2 (56 CD)\01 - Abbado - Bizet - Carmen - Part 1\04 - Act 1 - Avec la garde montante (Choeur des Gamins).wav

Peak level 96.0 %
Extraction speed 5.2 X
Track quality 100.0 %
Test CRC 3BE40461
Copy CRC 3BE40461
Accurately ripped (confidence 25) [3FBFF092]
Copy OK

Track 5

Filename O:\Klassik\111 Years Of Deutsche Grammophon - The Collector's Edition 2 (56 CD)\01 - Abbado - Bizet - Carmen - Part 1\05 - Act 1 - Repos! (Zuniga, Moralès, Don José).wav

Peak level 45.8 %
Extraction speed 3.5 X
Track quality 100.0 %
Test CRC AFB9225B
Copy CRC AFB9225B
Accurately ripped (confidence 25) [1D01520C]
Copy OK

Track 6

Filename O:\Klassik\111 Years Of Deutsche Grammophon - The Collector's Edition 2 (56 CD)\01 - Abbado - Bizet - Carmen - Part 1\06 - Act 1 - Allons! Allons! (Zuniga, Choeur des Gamins).wav

Peak level 65.7 %
Extraction speed 4.1 X
Track quality 100.0 %
Test CRC DD71F857
Copy CRC DD71F857
Accurately ripped (confidence 25) [B21AB74B]
Copy OK

Track 7

Filename O:\Klassik\111 Years Of Deutsche Grammophon - The Collector's Edition 2 (56 CD)\01 - Abbado - Bizet - Carmen - Part 1\07 - Act 1 - Dites-moi, brigadier (Zuniga, Don José).wav

Peak level 31.2 %
Extraction speed 3.9 X
Track quality 100.0 %
Test CRC F6EE41D3
Copy CRC F6EE41D3
Accurately ripped (confidence 25) [4E2EF2DE]
Copy OK

Track 8

Filename O:\Klassik\111 Years Of Deutsche Grammophon - The Collector's Edition 2 (56 CD)\01 - Abbado - Bizet - Carmen - Part 1\08 - Act 1 - La cloche a sonné (Les Jeunes Gens, Les Soldats, Les Cigarières).wav

Peak level 80.2 %
Extraction speed 6.1 X
Track quality 100.0 %
Test CRC 8F717CDA
Copy CRC 8F717CDA
Accurately ripped (confidence 25) [1F44B6FD]
Copy OK

Track 9

Filename O:\Klassik\111 Years Of Deutsche Grammophon - The Collector's Edition 2 (56 CD)\01 - Abbado - Bizet - Carmen - Part 1\09 - Act 1 - Mais nous ne voyons pas la Carmencita (Les Soldats, Les Jeunes Gens).wav

Peak level 89.1 %
Extraction speed 3.7 X
Track quality 100.0 %
Test CRC 28BAD030
Copy CRC 28BAD030
Accurately ripped (confidence 24) [35A66D73]
Copy OK

Track 10

Filename O:\Klassik\111 Years Of Deutsche Grammophon - The Collector's Edition 2 (56 CD)\01 - Abbado - Bizet - Carmen - Part 1\10 - Act 1 - ''Quand je vous aimerai'' - ''L'amour est un oiseau rebelle'' (Havanaise) (Carmen, Choeur).wav

Peak level 99.9 %
Extraction speed 5.5 X
Track quality 100.0 %
Test CRC AF9633E2
Copy CRC AF9633E2
Accurately ripped (confidence 24) [BBF5C461]
Copy OK

Track 11

Filename O:\Klassik\111 Years Of Deutsche Grammophon - The Collector's Edition 2 (56 CD)\01 - Abbado - Bizet - Carmen - Part 1\11 - Act 1 - Carmen, sur tes pas, nous nous pressons tous (Les Jeunes Gens, Les Cigarières, Don José).wav

Peak level 99.9 %
Extraction speed 5.9 X
Track quality 100.0 %
Test CRC A4642165
Copy CRC A4642165
Accurately ripped (confidence 25) [3C0A6F07]
Copy OK

Track 12

Filename O:\Klassik\111 Years Of Deutsche Grammophon - The Collector's Edition 2 (56 CD)\01 - Abbado - Bizet - Carmen - Part 1\12 - Act 1 - ''Monsieur le brigadier'' - ''Parle-moi de ma mère!'' (Micaela, Don José , Don José, Micaela).wav

Peak level 57.2 %
Extraction speed 5.6 X
Track quality 100.0 %
Test CRC 0883034C
Copy CRC 0883034C
Accurately ripped (confidence 25) [3A3C8924]
Copy OK

Track 13

Filename O:\Klassik\111 Years Of Deutsche Grammophon - The Collector's Edition 2 (56 CD)\01 - Abbado - Bizet - Carmen - Part 1\13 - Act 1 - Votre mère avec moi sortait de la chapelle (Micaela, Don José).wav

Peak level 60.7 %
Extraction speed 6.6 X
Track quality 100.0 %
Test CRC 659951F4
Copy CRC 659951F4
Accurately ripped (confidence 25) [5CDE1890]
Copy OK

Track 14

Filename O:\Klassik\111 Years Of Deutsche Grammophon - The Collector's Edition 2 (56 CD)\01 - Abbado - Bizet - Carmen - Part 1\14 - Act 1 - Ma mère, je la vois.. (Don José, Micaela).wav

Peak level 67.4 %
Extraction speed 7.0 X
Track quality 100.0 %
Test CRC B881D6EB
Copy CRC B881D6EB
Accurately ripped (confidence 25) [4610411D]
Copy OK

Track 15

Filename O:\Klassik\111 Years Of Deutsche Grammophon - The Collector's Edition 2 (56 CD)\01 - Abbado - Bizet - Carmen - Part 1\15 - Act 1 - ''Que son fils l'aime et la vénère'' - ''Eh bien, eh bien!'' (Don José, Micaela , Zuniga).wav

Peak level 62.9 %
Extraction speed 7.8 X
Track quality 100.0 %
Test CRC 50A7C01C
Copy CRC 50A7C01C
Accurately ripped (confidence 24) [ECFFB959]
Copy OK

Track 16

Filename O:\Klassik\111 Years Of Deutsche Grammophon - The Collector's Edition 2 (56 CD)\01 - Abbado - Bizet - Carmen - Part 1\16 - Act 1 - Au secours! (Les Cigarières, Zuniga, Les Soldats).wav

Peak level 99.9 %
Extraction speed 7.5 X
Track quality 100.0 %
Test CRC 05906756
Copy CRC 05906756
Accurately ripped (confidence 25) [672746DB]
Copy OK

Track 17

Filename O:\Klassik\111 Years Of Deutsche Grammophon - The Collector's Edition 2 (56 CD)\01 - Abbado - Bizet - Carmen - Part 1\17 - Act 1 - ''Voyons, brigadier…'' - ''Tra la la la…'' (Zuniga, Don José, Carmen , Carmen, Zuniga, Les Cigarières, Un So

Peak level 99.9 %
Extraction speed 6.6 X
Track quality 99.9 %
Test CRC 09BDB068
Copy CRC 09BDB068
Accurately ripped (confidence 25) [86B15FD7]
Copy OK

Track 18

Filename O:\Klassik\111 Years Of Deutsche Grammophon - The Collector's Edition 2 (56 CD)\01 - Abbado - Bizet - Carmen - Part 1\18 - Act 1 - Chanson et Duo- ''Près des remparts de Séville''.wav

Peak level 87.0 %
Extraction speed 7.9 X
Track quality 100.0 %
Test CRC C348C5ED
Copy CRC C348C5ED
Accurately ripped (confidence 22) [8F0A0765]
Copy OK

Track 19

Filename O:\Klassik\111 Years Of Deutsche Grammophon - The Collector's Edition 2 (56 CD)\01 - Abbado - Bizet - Carmen - Part 1\19 - Act 1 - Le lieutenant!… Prenez garde. (Don José, Zuniga, Carmen).wav

Peak level 91.7 %
Extraction speed 6.2 X
Track quality 100.0 %
Test CRC 1E456BEC
Copy CRC 1E456BEC
Accurately ripped (confidence 24) [26F4E7D2]
Copy OK

Track 20

Filename O:\Klassik\111 Years Of Deutsche Grammophon - The Collector's Edition 2 (56 CD)\01 - Abbado - Bizet - Carmen - Part 1\20 - Act 1 - Entracte (between Act I & II).wav

Pre-gap length 0:00:09.74

Peak level 18.6 %
Extraction speed 7.3 X
Track quality 100.0 %
Test CRC B6B49B87
Copy CRC B6B49B87
Accurately ripped (confidence 24) [F44A9AED]
Copy OK

Track 21

Filename O:\Klassik\111 Years Of Deutsche Grammophon - The Collector's Edition 2 (56 CD)\01 - Abbado - Bizet - Carmen - Part 1\21 - Act 2 - Les tringles des sistres tintaient (Carmen, Mercédès, Frasquita).wav

Peak level 99.9 %
Extraction speed 9.0 X
Track quality 100.0 %
Test CRC 69C2E331
Copy CRC 69C2E331
Accurately ripped (confidence 25) [543608BF]
Copy OK

Track 22

Filename O:\Klassik\111 Years Of Deutsche Grammophon - The Collector's Edition 2 (56 CD)\01 - Abbado - Bizet - Carmen - Part 1\22 - Act 2 - Vous avez quelque chose à nous dire (Zuniga, Pastia, Frasquita, andrès, Mercédès, Carmen).wav

Peak level 36.0 %
Extraction speed 6.4 X
Track quality 100.0 %
Test CRC BCF37CF1
Copy CRC BCF37CF1
Accurately ripped (confidence 25) [2FD37960]
Copy OK

Track 23

Filename O:\Klassik\111 Years Of Deutsche Grammophon - The Collector's Edition 2 (56 CD)\01 - Abbado - Bizet - Carmen - Part 1\23 - Act 2 - ''Tout est bien alors'' - ''Vivat! vivat le toréro!'' (Carmen, Zuniga , Choeur, Zuniga, Mercédès, Frasquita, Esc

Peak level 97.6 %
Extraction speed 7.0 X
Track quality 100.0 %
Test CRC 7AB2E189
Copy CRC 7AB2E189
Accurately ripped (confidence 25) [7970580D]
Copy OK

Track 24

Filename O:\Klassik\111 Years Of Deutsche Grammophon - The Collector's Edition 2 (56 CD)\01 - Abbado - Bizet - Carmen - Part 1\24 - Act 2 - ''Votre toast… je peux…'' - ''Toréador, en garde'' (Escamillo , tout le monde , Pastia , Zuniga , Carmen, Ch

Peak level 98.0 %
Extraction speed 8.9 X
Track quality 100.0 %
Test CRC DC3BF7F8
Copy CRC DC3BF7F8
Accurately ripped (confidence 25) [20FB5E12]
Copy OK

Track 25

Filename O:\Klassik\111 Years Of Deutsche Grammophon - The Collector's Edition 2 (56 CD)\01 - Abbado - Bizet - Carmen - Part 1\25 - Act 2 - Nous avons en tête une affaire! (Dancaire, Frasquita, Mercédès, Remendado, Carmen).wav

Peak level 99.9 %
Extraction speed 10.0 X
Track quality 100.0 %
Test CRC FEBE6683
Copy CRC FEBE6683
Accurately ripped (confidence 25) [2A7221D2]
Copy OK

Track 26

Filename O:\Klassik\111 Years Of Deutsche Grammophon - The Collector's Edition 2 (56 CD)\01 - Abbado - Bizet - Carmen - Part 1\26 - Act 2 - ''Amoureuse… ce n'est pas une raison'' - ''Halte-là! Qui va là'' (Dancaire, Remendado, Frasquita, Mercédès, Ca

Peak level 50.6 %
Extraction speed 9.2 X
Track quality 100.0 %
Test CRC 9A4B515A
Copy CRC 9A4B515A
Accurately ripped (confidence 25) [8B1E8EB5]
Copy OK


All tracks accurately ripped

No errors occurred

End of status report

[Verification date: 14.03.2011 18:46:42]
[Disc ID: 0043293d-04f86036-a312841a]
Track [ CRC ] Status
01 [343e4984] (35/45) Accurately ripped as in pressing(s) #1
02 [1e41f620] (35/45) Accurately ripped as in pressing(s) #1
03 [720e0388] (35/45) Accurately ripped as in pressing(s) #1
04 [3fbff092] (35/44) Accurately ripped as in pressing(s) #1
05 [1d01520c] (35/45) Accurately ripped as in pressing(s) #1
06 [b21ab74b] (35/45) Accurately ripped as in pressing(s) #1
07 [4e2ef2de] (35/45) Accurately ripped as in pressing(s) #1
08 [1f44b6fd] (35/44) Accurately ripped as in pressing(s) #1
09 [35a66d73] (34/44) Accurately ripped as in pressing(s) #1
10 [bbf5c461] (34/44) Accurately ripped as in pressing(s) #1
11 [3c0a6f07] (35/45) Accurately ripped as in pressing(s) #1
12 [3a3c8924] (35/45) Accurately ripped as in pressing(s) #1
13 [5cde1890] (35/44) Accurately ripped as in pressing(s) #1
14 [4610411d] (35/45) Accurately ripped as in pressing(s) #1
15 [ecffb959] (34/44) Accurately ripped as in pressing(s) #1
16 [672746db] (35/45) Accurately ripped as in pressing(s) #1
17 [86b15fd7] (35/45) Accurately ripped as in pressing(s) #1
18 [8f0a0765] (32/42) Accurately ripped as in pressing(s) #1
19 [26f4e7d2] (34/44) Accurately ripped as in pressing(s) #1
20 [f44a9aed] (34/44) Accurately ripped as in pressing(s) #1
21 [543608bf] (35/45) Accurately ripped as in pressing(s) #1
22 [2fd37960] (35/45) Accurately ripped as in pressing(s) #1
23 [7970580d] (35/45) Accurately ripped as in pressing(s) #1
24 [20fb5e12] (35/45) Accurately ripped as in pressing(s) #1
25 [2a7221d2] (35/44) Accurately ripped as in pressing(s) #1
26 [8b1e8eb5] (36/46) Accurately ripped as in pressing(s) #1
Offsetted by -664:
01 [a064697f] (03/45) Accurately ripped as in pressing(s) #3
02 [da25b68b] (03/45) Accurately ripped as in pressing(s) #3
03 [09d146a0] (03/45) Accurately ripped as in pressing(s) #3
04 [9b0638b8] (02/44) Accurately ripped as in pressing(s) #3
05 [b53e9f0b] (03/45) Accurately ripped as in pressing(s) #3
06 [c91931f2] (03/45) Accurately ripped as in pressing(s) #3
07 [0f1a5386] (03/45) Accurately ripped as in pressing(s) #3
08 [71769d9c] (03/44) Accurately ripped as in pressing(s) #3
09 [7071cf0f] (03/44) Accurately ripped as in pressing(s) #3
10 [be4cefad] (03/44) Accurately ripped as in pressing(s) #3
11 [9fdb2524] (03/45) Accurately ripped as in pressing(s) #3
12 [b9a3e419] (03/45) Accurately ripped as in pressing(s) #3
13 [ede304cf] (03/44) Accurately ripped as in pressing(s) #3
14 [03ff85b8] (03/45) Accurately ripped as in pressing(s) #3
15 [26ea7f23] (03/44) Accurately ripped as in pressing(s) #3
16 [08d8d5af] (03/45) Accurately ripped as in pressing(s) #3
17 [fabf2b47] (03/45) Accurately ripped as in pressing(s) #3
18 [141a8dbd] (03/42) Accurately ripped as in pressing(s) #3
19 [fbf45747] (03/44) Accurately ripped as in pressing(s) #3
20 [34256993] (03/44) Accurately ripped as in pressing(s) #3
21 [d3630211] (03/45) Accurately ripped as in pressing(s) #3
22 [1ced9081] (03/45) Accurately ripped as in pressing(s) #3
23 [4567046a] (03/45) Accurately ripped as in pressing(s) #3
24 [745972b1] (03/45) Accurately ripped as in pressing(s) #3
25 [30b7436f] (03/44) Accurately ripped as in pressing(s) #3
26 [e84ff3e7] (03/46) Accurately ripped as in pressing(s) #3

Track [ CRC32 ] [W/O NULL] [ LOG ]
– [63C29262] [A7D5E2D7]
01 [CDBF8655] [9EEEA4D5] CRC32
02 [07CF868C] [183F3086] CRC32
03 [95117EEF] [15D5A890] CRC32
04 [3BE40461] [DFB9AC73] CRC32
05 [AFB9225B] [ADF107E8] CRC32
06 [DD71F857] [22C023E4] CRC32
07 [F6EE41D3] [477E2BF7] CRC32
08 [8F717CDA] [8AE7C202] CRC32
09 [28BAD030] [08AF5915] CRC32
10 [AF9633E2] [DE1CE59E] CRC32
11 [A4642165] [85F93FAF] CRC32
12 [0883034C] [E265D4AF] CRC32
13 [659951F4] [5F36BC0E] CRC32
14 [B881D6EB] [AE3C5ADF] CRC32
15 [50A7C01C] [CA18193D] CRC32
16 [05906756] [D0C67C7D] CRC32
17 [09BDB068] [211ED566] CRC32
18 [C348C5ED] [AE8F345D] CRC32
19 [1E456BEC] [700C14E2] CRC32
20 [B6B49B87] [F9C0F498] CRC32
21 [69C2E331] [ECE87BDB] CRC32
22 [BCF37CF1] [A78126FC] CRC32
23 [7AB2E189] [44E1B9B2] CRC32
24 [DC3BF7F8] [C3B01120] CRC32
25 [FEBE6683] [A72CE5BE] CRC32
26 [9A4B515A] [770E55CC] CRC32

111 Years of Deutsche Grammophon. The Collectors' Edition 2 [Deutsche Grammophon, 000289 477 9142 3] - Part 1 RE-UP

–––––––––––––––––––––––––––––––––––––––––-

111 Years of Deutsche Grammophon. The Collectors' Edition 2 [Deutsche Grammophon, 000289 477 9142 3] - Part 1 RE-UP

CD-02 - Bizet: Carmen / Act 2 (cont.) & 3

Tracklist:

Act II
01. Je vais danser en votre honneur [Carmen, Don Jose] [05:41]
02. La fleur que tu m'avais jetee [Don Jose] [04:15]
03. Non! Tu ne m'aimes pas! [Carmen, Don Jose] [04:01]
04. Hola! Carmen! Hola! [Zuniga, Don Jose, Carmen, les Bohemiens] [03:31]
05. Suis-nous a travers la campagne [Frasquita, Mercedes, les Bohemiens] [01:48]
06. Entr'acte [03:00]

Act III-1
07. Ecoute, compagnon, ecoute [Les Contrebandiers, Frasquita, Mercedes, Carmen, Don Jose] [04:40]
08. Halte! Nous allons nous arreter ici… [Dancare, Remendado, Don Jose, Carmen] [01:29]
09. Melons! Melons! Coupons! [Frasquita, Mercedes] [03:20]
10. Carreau, pique…la mort! [Carmen] [03:20]
11. Parlez encore, parlez, mes belles [Frasquita, Mercedes, Carmen] [00:49]
12. Eh bien, j'avais raison [Dancare, Carmen, Don Jose] [00:30]
13. Quant au douanier, c'est notre affaire [Carmen, Mercedes, Frasquita, les Bohemiens] [03:07]
14. ANous y sommes [Guide, Micala] [00:43]
15. Je dis que rien ne m'epouvante [Micala] [04:50]
16. Mais…je ne me trompe pas… [Micala, Escamillo, Don Jose] [03:42]
17. Hola, Jose! [Carmen, Escamillo, Don Jose, Contredaniers] [03:00]
18. Halte!…Quelqu'un est la qui cherche a se cacher [Remendado, Carmen, Don Jose, Escamillo] [05:07]
19. Entr'acte [02:10]

Act III-2
20. A deux cuartos [Marchands, Soldat, Andes, un Bohemien] [02:23]
21. Les voici! Voici le quadrille [Choeur] [03:51]
22. Si tu m'aimes, Carmen [Escamillo, Carmen, Frasquita, Mercedes] [03:19]
23. C'est toi C'est moi! [Carmen, Don Jose, Choeur] [09:24]

Personnel:

Berganza · Domingo · Milnes
Cotrubas · Kenny · Nafé · Lloyd
Ambrosian Singers
George Watson's College
Boys' Chorus
London Symphony Orchestra
Claudio Abbado

Exact Audio Copy V1.0 beta 1 from 15. November 2010

EAC extraction logfile from 28. December 2010, 3:34

Georges Bizet / Carmen - Act 2 (cont.) & 3

Used drive : TSSTcorpCD/DVDW SH-S182M Adapter: 0 ID: 1

Read mode : Secure
Utilize accurate stream : Yes
Defeat audio cache : Yes
Make use of C2 pointers : No

Read offset correction : 6
Overread into Lead-In and Lead-Out : No
Fill up missing offset samples with silence : Yes
Delete leading and trailing silent blocks : No
Null samples used in CRC calculations : Yes
Used interface : Installed external ASPI interface
Gap handling : Appended to previous track

Used output format : User Defined Encoder
Selected bitrate : 768 kBit/s
Quality : High
Add ID3 tag : No
Command line compressor : C:\Programme\Exact Audio Copy\FLAC\FLAC.EXE
Additional command line options : -V -8 -T "artist=%a" -T "title=%t" -T "album=%g" -T "date=%y" -T "tracknumber=%n" -T "genre=%m" %s


TOC of the extracted CD

Track | Start | Length | Start sector | End sector
––––––––––––––––––––––––––––-
1 | 0:00.00 | 5:41.68 | 0 | 25642
2 | 5:41.68 | 4:15.44 | 25643 | 44811
3 | 9:57.37 | 4:01.18 | 44812 | 62904
4 | 13:58.55 | 3:31.63 | 62905 | 78792
5 | 17:30.43 | 2:00.30 | 78793 | 87822
6 | 19:30.73 | 3:00.52 | 87823 | 101374
7 | 22:31.50 | 4:40.39 | 101375 | 122413
8 | 27:12.14 | 1:29.36 | 122414 | 129124
9 | 28:41.50 | 3:20.64 | 129125 | 144188
10 | 32:02.39 | 3:20.06 | 144189 | 159194
11 | 35:22.45 | 0:49.55 | 159195 | 162924
12 | 36:12.25 | 0:30.08 | 162925 | 165182
13 | 36:42.33 | 3:07.70 | 165183 | 179277
14 | 39:50.28 | 0:43.72 | 179278 | 182574
15 | 40:34.25 | 4:50.18 | 182575 | 204342
16 | 45:24.43 | 3:42.35 | 204343 | 221027
17 | 49:07.03 | 3:00.22 | 221028 | 234549
18 | 52:07.25 | 5:16.13 | 234550 | 258262
19 | 57:23.38 | 2:10.37 | 258263 | 268049
20 | 59:34.00 | 2:23.18 | 268050 | 278792
21 | 61:57.18 | 3:51.57 | 278793 | 296174
22 | 65:49.00 | 3:19.66 | 296175 | 311165
23 | 69:08.66 | 9:24.09 | 311166 | 353474


Track 1

Filename O:\Klassik\111 Years Of Deutsche Grammophon - The Collector's Edition 2 (56 CD)\02 - Abbado - Bizet - Carmen - Part 2\01 - Act 2 - Je vais danser en votre honneur (Carmen, Don José).wav

Pre-gap length 0:00:02.00

Peak level 99.9 %
Extraction speed 4.7 X
Track quality 100.0 %
Test CRC 015A8E8A
Copy CRC 015A8E8A
Accurately ripped (confidence 14) [5F186441]
Copy OK

Track 2

Filename O:\Klassik\111 Years Of Deutsche Grammophon - The Collector's Edition 2 (56 CD)\02 - Abbado - Bizet - Carmen - Part 2\02 - Act 2 - La fleur que tu m'avais jetée (Don José).wav

Peak level 78.9 %
Extraction speed 4.7 X
Track quality 100.0 %
Test CRC F444EA77
Copy CRC F444EA77
Accurately ripped (confidence 14) [E08A4ED7]
Copy OK

Track 3

Filename O:\Klassik\111 Years Of Deutsche Grammophon - The Collector's Edition 2 (56 CD)\02 - Abbado - Bizet - Carmen - Part 2\03 - Act 2 - Non, tu ne m'aimes pas! (Carmen, Don José).wav

Peak level 99.9 %
Extraction speed 4.1 X
Track quality 100.0 %
Test CRC 3B42106D
Copy CRC 3B42106D
Accurately ripped (confidence 14) [8F04447A]
Copy OK

Track 4

Filename O:\Klassik\111 Years Of Deutsche Grammophon - The Collector's Edition 2 (56 CD)\02 - Abbado - Bizet - Carmen - Part 2\04 - Act 2 - Holà! Carmen! Holà! (Zuniga, Don José, Carmen, Dancaire, Remendado, Les Bohémiens).wav

Peak level 94.8 %
Extraction speed 5.0 X
Track quality 99.9 %
Test CRC 026D249D
Copy CRC 026D249D
Accurately ripped (confidence 14) [462159DE]
Copy OK

Track 5

Filename O:\Klassik\111 Years Of Deutsche Grammophon - The Collector's Edition 2 (56 CD)\02 - Abbado - Bizet - Carmen - Part 2\05 - Act 2 - Suis-nous à travers la campagne (Frasquita, Mercédès, Dancaire, Remendado, Les Bohémiens, Les Bohémiennes).wav

Peak level 99.9 %
Extraction speed 5.1 X
Track quality 100.0 %
Test CRC A42ED185
Copy CRC A42ED185
Accurately ripped (confidence 14) [BFACA468]
Copy OK

Track 6

Filename O:\Klassik\111 Years Of Deutsche Grammophon - The Collector's Edition 2 (56 CD)\02 - Abbado - Bizet - Carmen - Part 2\06 - Act 2 - Entracte (between Act II & III).wav

Pre-gap length 0:00:11.73

Peak level 18.5 %
Extraction speed 4.5 X
Track quality 100.0 %
Test CRC DEBA041A
Copy CRC DEBA041A
Accurately ripped (confidence 14) [4F1820E1]
Copy OK

Track 7

Filename O:\Klassik\111 Years Of Deutsche Grammophon - The Collector's Edition 2 (56 CD)\02 - Abbado - Bizet - Carmen - Part 2\07 - Act 3 - Écoute, compagnon, écoute! (les Contrebandiers, Frasquita, Mercédès, Carmen, Don José, Dancaire, Remendado).wav

Peak level 98.6 %
Extraction speed 6.0 X
Track quality 100.0 %
Test CRC 984ED82A
Copy CRC 984ED82A
Accurately ripped (confidence 14) [C835A733]
Copy OK

Track 8

Filename O:\Klassik\111 Years Of Deutsche Grammophon - The Collector's Edition 2 (56 CD)\02 - Abbado - Bizet - Carmen - Part 2\08 - Act 3 - Halte! nous allons nous arrêter ici! (Dancaire, Remendado, Don José, Carmen).wav

Peak level 36.4 %
Extraction speed 5.5 X
Track quality 100.0 %
Test CRC 2FB8D179
Copy CRC 2FB8D179
Accurately ripped (confidence 14) [4ADA20AE]
Copy OK

Track 9

Filename O:\Klassik\111 Years Of Deutsche Grammophon - The Collector's Edition 2 (56 CD)\02 - Abbado - Bizet - Carmen - Part 2\09 - Act 3 - ''Mêlons!'',''Mêlons!'',''Coupons!'' (Frasquita, Mercédès).wav

Peak level 78.4 %
Extraction speed 6.5 X
Track quality 100.0 %
Test CRC 25A3756C
Copy CRC 25A3756C
Accurately ripped (confidence 14) [9CCAD3CE]
Copy OK

Track 10

Filename O:\Klassik\111 Years Of Deutsche Grammophon - The Collector's Edition 2 (56 CD)\02 - Abbado - Bizet - Carmen - Part 2\10 - Act 3 - Carreau! Pique!… La mort! (Carmen).wav

Peak level 79.9 %
Extraction speed 7.2 X
Track quality 100.0 %
Test CRC 7BBCA07B
Copy CRC 7BBCA07B
Accurately ripped (confidence 14) [B7B7E847]
Copy OK

Track 11

Filename O:\Klassik\111 Years Of Deutsche Grammophon - The Collector's Edition 2 (56 CD)\02 - Abbado - Bizet - Carmen - Part 2\11 - Act 3 - Parlez encore, parlez, mes belles (Frasquita, Mercédès, Carmen).wav

Peak level 99.9 %
Extraction speed 4.8 X
Track quality 100.0 %
Test CRC 64C36350
Copy CRC 64C36350
Accurately ripped (confidence 14) [1C659EE7]
Copy OK

Track 12

Filename O:\Klassik\111 Years Of Deutsche Grammophon - The Collector's Edition 2 (56 CD)\02 - Abbado - Bizet - Carmen - Part 2\12 - Act 3 - Eh! bien, j'avais raison. (Dancaire, Carmen, Remendado, Frasquita, Mercédès, Don José).wav

Peak level 49.9 %
Extraction speed 3.5 X
Track quality 100.0 %
Test CRC 0512A021
Copy CRC 0512A021
Accurately ripped (confidence 14) [D4D04528]
Copy OK

Track 13

Filename O:\Klassik\111 Years Of Deutsche Grammophon - The Collector's Edition 2 (56 CD)\02 - Abbado - Bizet - Carmen - Part 2\13 - Act 3 - Quant au douanier, c'est notre affaire! (Carmen, Mercédès, Frasquita, Les Bohémiennes, Les Bohémiens, Dancaire,

Peak level 99.9 %
Extraction speed 5.6 X
Track quality 99.9 %
Test CRC 6B84F9B5
Copy CRC 6B84F9B5
Accurately ripped (confidence 14) [57276F72]
Copy OK

Track 14

Filename O:\Klassik\111 Years Of Deutsche Grammophon - The Collector's Edition 2 (56 CD)\02 - Abbado - Bizet - Carmen - Part 2\14 - Act 3 - Nous y sommes (Le Guide, Micaela).wav

Peak level 10.7 %
Extraction speed 4.7 X
Track quality 100.0 %
Test CRC C3D0044E
Copy CRC C3D0044E
Accurately ripped (confidence 14) [92180B0E]
Copy OK

Track 15

Filename O:\Klassik\111 Years Of Deutsche Grammophon - The Collector's Edition 2 (56 CD)\02 - Abbado - Bizet - Carmen - Part 2\15 - Act 3 - Je dis que rien ne m'épouvante (Micaela).wav

Peak level 99.9 %
Extraction speed 7.0 X
Track quality 99.9 %
Test CRC 2E2EB4D8
Copy CRC 2E2EB4D8
Accurately ripped (confidence 14) [198912DC]
Copy OK

Track 16

Filename O:\Klassik\111 Years Of Deutsche Grammophon - The Collector's Edition 2 (56 CD)\02 - Abbado - Bizet - Carmen - Part 2\16 - Act 3 - ''Mais… je ne me trompe pas…'' - ''Je suis Escamillo, toréro de Grenade.'' (Micaela, Escamillo, Don José , E

Peak level 99.3 %
Extraction speed 6.7 X
Track quality 99.9 %
Test CRC 88145411
Copy CRC 88145411
Accurately ripped (confidence 14) [A976D7BC]
Copy OK

Track 17

Filename O:\Klassik\111 Years Of Deutsche Grammophon - The Collector's Edition 2 (56 CD)\02 - Abbado - Bizet - Carmen - Part 2\17 - Act 3 - Holà, José! (Carmen, Escamillo, Dancaire, Don José, Les Contrebandiers, Les Contrebandières).wav

Peak level 99.9 %
Extraction speed 6.8 X
Track quality 99.9 %
Test CRC B44FF6F2
Copy CRC B44FF6F2
Accurately ripped (confidence 14) [FCDC390D]
Copy OK

Track 18

Filename O:\Klassik\111 Years Of Deutsche Grammophon - The Collector's Edition 2 (56 CD)\02 - Abbado - Bizet - Carmen - Part 2\18 - Act 3 - Halte! quelqu'un est là qui cherche à se cacher. (Remendado, Carmen, Dancaire, Don José, Micaela, Choeur).wav

Peak level 99.9 %
Extraction speed 8.1 X
Track quality 100.0 %
Test CRC 9D93230E
Copy CRC 9D93230E
Accurately ripped (confidence 14) [1496F7AE]
Copy OK

Track 19

Filename O:\Klassik\111 Years Of Deutsche Grammophon - The Collector's Edition 2 (56 CD)\02 - Abbado - Bizet - Carmen - Part 2\19 - Act 3 - Entr'acte.wav

Pre-gap length 0:00:08.38

Peak level 79.1 %
Extraction speed 6.4 X
Track quality 99.9 %
Test CRC 335FE01F
Copy CRC 335FE01F
Accurately ripped (confidence 14) [5976D3CA]
Copy OK

Track 20

Filename O:\Klassik\111 Years Of Deutsche Grammophon - The Collector's Edition 2 (56 CD)\02 - Abbado - Bizet - Carmen - Part 2\20 - Act 3 - Choeur- ''A dos cuartos!''.wav

Peak level 99.9 %
Extraction speed 8.1 X
Track quality 100.0 %
Test CRC 363626A5
Copy CRC 363626A5
Accurately ripped (confidence 14) [CF1C92E9]
Copy OK

Track 21

Filename O:\Klassik\111 Years Of Deutsche Grammophon - The Collector's Edition 2 (56 CD)\02 - Abbado - Bizet - Carmen - Part 2\21 - Act 3 - Les voici! voici le quadrille! (Choeur).wav

Peak level 99.9 %
Extraction speed 7.9 X
Track quality 99.9 %
Test CRC 4EF25540
Copy CRC 4EF25540
Accurately ripped (confidence 14) [438483E1]
Copy OK

Track 22

Filename O:\Klassik\111 Years Of Deutsche Grammophon - The Collector's Edition 2 (56 CD)\02 - Abbado - Bizet - Carmen - Part 2\22 - Act 3 - Si tu m'aimes, Carmen (Escamillo, Carmen, Frasquita, Mercédès).wav

Peak level 65.6 %
Extraction speed 7.8 X
Track quality 99.9 %
Test CRC 28583398
Copy CRC 28583398
Accurately ripped (confidence 14) [13A5BA1D]
Copy OK

Track 23

Filename O:\Klassik\111 Years Of Deutsche Grammophon - The Collector's Edition 2 (56 CD)\02 - Abbado - Bizet - Carmen - Part 2\23 - Act 3 - ''C'est toi!'' ''C'est-moi!''.wav

Peak level 99.9 %
Extraction speed 10.5 X
Track quality 100.0 %
Test CRC 46D25B5B
Copy CRC 46D25B5B
Accurately ripped (confidence 14) [F0ED9469]
Copy OK


All tracks accurately ripped

No errors occurred

End of status report

[Verification date: 14.03.2011 22:02:09]
[Disc ID: 003e228e-03f35dd9-45126917]
Track [ CRC ] Status
01 [5f186441] (24/41) Accurately ripped as in pressing(s) #1
02 [e08a4ed7] (24/41) Accurately ripped as in pressing(s) #1
03 [8f04447a] (24/41) Accurately ripped as in pressing(s) #1
04 [462159de] (24/41) Accurately ripped as in pressing(s) #1
05 [bfaca468] (24/41) Accurately ripped as in pressing(s) #1
06 [4f1820e1] (24/41) Accurately ripped as in pressing(s) #1
07 [c835a733] (24/41) Accurately ripped as in pressing(s) #1
08 [4ada20ae] (24/41) Accurately ripped as in pressing(s) #1
09 [9ccad3ce] (24/41) Accurately ripped as in pressing(s) #1
10 [b7b7e847] (24/41) Accurately ripped as in pressing(s) #1
11 [1c659ee7] (24/41) Accurately ripped as in pressing(s) #1
12 [d4d04528] (24/41) Accurately ripped as in pressing(s) #1
13 [57276f72] (24/41) Accurately ripped as in pressing(s) #1
14 [92180b0e] (24/41) Accurately ripped as in pressing(s) #1
15 [198912dc] (24/41) Accurately ripped as in pressing(s) #1
16 [a976d7bc] (25/42) Accurately ripped as in pressing(s) #1
17 [fcdc390d] (24/41) Accurately ripped as in pressing(s) #1
18 [1496f7ae] (24/41) Accurately ripped as in pressing(s) #1
19 [5976d3ca] (24/41) Accurately ripped as in pressing(s) #1
20 [cf1c92e9] (24/41) Accurately ripped as in pressing(s) #1
21 [438483e1] (24/41) Accurately ripped as in pressing(s) #1
22 [13a5ba1d] (24/41) Accurately ripped as in pressing(s) #1
23 [f0ed9469] (24/41) Accurately ripped as in pressing(s) #1
Offsetted by -664:
01 [382c6bed] (13/41) Accurately ripped as in pressing(s) #2
02 [759e1f10] (13/41) Accurately ripped as in pressing(s) #2
03 [2f16b314] (13/41) Accurately ripped as in pressing(s) #2
04 [4480d870] (13/41) Accurately ripped as in pressing(s) #2
05 [a63a5346] (13/41) Accurately ripped as in pressing(s) #2
06 [9a7f89cb] (13/41) Accurately ripped as in pressing(s) #2
07 [b8e9aadf] (13/41) Accurately ripped as in pressing(s) #2
08 [abfed959] (13/41) Accurately ripped as in pressing(s) #2
09 [d1dc7a6a] (13/41) Accurately ripped as in pressing(s) #2
10 [f4eae03f] (13/41) Accurately ripped as in pressing(s) #2
11 [e07b3f16] (13/41) Accurately ripped as in pressing(s) #2
12 [d4199c34] (13/41) Accurately ripped as in pressing(s) #2
13 [b63c1f22] (13/41) Accurately ripped as in pressing(s) #2
14 [27a0319d] (13/41) Accurately ripped as in pressing(s) #2
15 [e38e4c0b] (13/41) Accurately ripped as in pressing(s) #2
16 [c9b4c934] (13/42) Accurately ripped as in pressing(s) #2
17 [57147465] (13/41) Accurately ripped as in pressing(s) #2
18 [bb384259] (13/41) Accurately ripped as in pressing(s) #2
19 [afdd4386] (13/41) Accurately ripped as in pressing(s) #2
20 [fbd00e46] (13/41) Accurately ripped as in pressing(s) #2
21 [8a13204c] (13/41) Accurately ripped as in pressing(s) #2
22 [a92bb4c1] (13/41) Accurately ripped as in pressing(s) #2
23 [f033a49d] (13/41) Accurately ripped as in pressing(s) #2

Track [ CRC32 ] [W/O NULL] [ LOG ]
– [F1BD3FD0] [E64ED769]
01 [015A8E8A] [DB313FB5] CRC32
02 [F444EA77] [E8C70C22] CRC32
03 [3B42106D] [53E8EDBB] CRC32
04 [026D249D] [26C49388] CRC32
05 [A42ED185] [ACCB2850] CRC32
06 [DEBA041A] [A32F3156] CRC32
07 [984ED82A] [2676995C] CRC32
08 [2FB8D179] [FC5519D5] CRC32
09 [25A3756C] [5C1D6D2C] CRC32
10 [7BBCA07B] [CD973F76] CRC32
11 [64C36350] [2BD0FFB1] CRC32
12 [0512A021] [579DE62C] CRC32
13 [6B84F9B5] [193EDD13] CRC32
14 [C3D0044E] [D1FAA37B] CRC32
15 [2E2EB4D8] [7B03D312] CRC32
16 [88145411] [F647924D] CRC32
17 [B44FF6F2] [16446E87] CRC32
18 [9D93230E] [5BCA1790] CRC32
19 [335FE01F] [8A4ED423] CRC32
20 [363626A5] [C6A396B4] CRC32
21 [4EF25540] [6DC34A20] CRC32
22 [28583398] [511D5E60] CRC32
23 [46D25B5B] [8372FF1F] CRC32

111 Years of Deutsche Grammophon. The Collectors' Edition 2 [Deutsche Grammophon, 000289 477 9142 3] - Part 1 RE-UP

–––––––––––––––––––––––––––––––––––––––––-

111 Years of Deutsche Grammophon. The Collectors' Edition 2 [Deutsche Grammophon, 000289 477 9142 3] - Part 1 RE-UP

CD-03 - Prokofiev: Piano Concerto No.3 / Ravel: Concerto in G; Gaspard de la nuit

Tracklist:

Prokofiev - Konzert fur Klavier und Orchester No.3 in C-dur op. 26
01. 1. Andante - Allegro [09:01]
02. 2. Thema. Andantino [09:02]
03. 3. Allegro ma non troppo [09:00]

Ravel - Konzert fur Klavier und Orchester in G-dur
04. 1. Allegramente [08:10]
05. 2. Adagio assai [09:03]
06. 3. Presto [03:52]

Ravel - Gaspard de la nuit, poemes d'apres Bertrand
07. 1. Ondine. Lent [06:19]
08. 2. Le Gibet. Tres lent [06:41]
09. 3. Scarbo. Modere [09:21]

Personnel:

Martha Argerich
Berliner Philharmoniker
Claudio Abbado

Exact Audio Copy V1.0 beta 1 from 15. November 2010

EAC extraction logfile from 28. December 2010, 12:53

Martha Argerich / Prokofiev: Piano Concerto No.3 - Ravel: Concerto in G, Gaspard de la nuit

Used drive : TSSTcorpCD/DVDW SH-S182M Adapter: 0 ID: 1

Read mode : Secure
Utilize accurate stream : Yes
Defeat audio cache : Yes
Make use of C2 pointers : No

Read offset correction : 6
Overread into Lead-In and Lead-Out : No
Fill up missing offset samples with silence : Yes
Delete leading and trailing silent blocks : No
Null samples used in CRC calculations : Yes
Used interface : Installed external ASPI interface
Gap handling : Appended to previous track

Used output format : User Defined Encoder
Selected bitrate : 768 kBit/s
Quality : High
Add ID3 tag : No
Command line compressor : C:\Programme\Exact Audio Copy\FLAC\FLAC.EXE
Additional command line options : -V -8 -T "artist=%a" -T "title=%t" -T "album=%g" -T "date=%y" -T "tracknumber=%n" -T "genre=%m" %s


TOC of the extracted CD

Track | Start | Length | Start sector | End sector
––––––––––––––––––––––––––––-
1 | 0:00.33 | 9:01.00 | 33 | 40607
2 | 9:01.33 | 9:03.00 | 40608 | 81332
3 | 18:04.33 | 9:09.00 | 81333 | 122507
4 | 27:13.33 | 8:10.00 | 122508 | 159257
5 | 35:23.33 | 9:03.00 | 159258 | 199982
6 | 44:26.33 | 4:03.00 | 199983 | 218207
7 | 48:29.33 | 6:19.00 | 218208 | 246632
8 | 54:48.33 | 6:41.00 | 246633 | 276707
9 | 61:29.33 | 9:21.00 | 276708 | 318782


Track 1

Filename O:\Klassik\111 Years Of Deutsche Grammophon - The Collector's Edition 2 (56 CD)\03 - Argerich - Prokofiev - Ravel\01 - Sergei Prokofiev- Piano Concerto No.3 in C, Op.26 - 1. Andante - Allegro.wav

Pre-gap length 0:00:02.33

Peak level 98.8 %
Extraction speed 4.7 X
Track quality 100.0 %
Test CRC 8C618AE4
Copy CRC 8C618AE4
Accurately ripped (confidence 24) [DD88C369]
Copy OK

Track 2

Filename O:\Klassik\111 Years Of Deutsche Grammophon - The Collector's Edition 2 (56 CD)\03 - Argerich - Prokofiev - Ravel\02 - Sergei Prokofiev- Piano Concerto No.3 in C, Op.26 - 2. Tema con variazione.wav

Peak level 88.5 %
Extraction speed 5.5 X
Track quality 100.0 %
Test CRC E1E706DF
Copy CRC E1E706DF
Accurately ripped (confidence 24) [1C1C3ED3]
Copy OK

Track 3

Filename O:\Klassik\111 Years Of Deutsche Grammophon - The Collector's Edition 2 (56 CD)\03 - Argerich - Prokofiev - Ravel\03 - Sergei Prokofiev- Piano Concerto No.3 in C, Op.26 - 3. Allegro ma non troppo.wav

Peak level 99.9 %
Extraction speed 6.5 X
Track quality 100.0 %
Test CRC 192442B8
Copy CRC 192442B8
Accurately ripped (confidence 24) [75AE1D2B]
Copy OK

Track 4

Filename O:\Klassik\111 Years Of Deutsche Grammophon - The Collector's Edition 2 (56 CD)\03 - Argerich - Prokofiev - Ravel\04 - Maurice Ravel- Piano Concerto in G - 1. Allegramente.wav

Pre-gap length 0:00:09.00

Peak level 93.2 %
Extraction speed 6.9 X
Track quality 100.0 %
Test CRC ED2AECA0
Copy CRC ED2AECA0
Accurately ripped (confidence 24) [57137886]
Copy OK

Track 5

Filename O:\Klassik\111 Years Of Deutsche Grammophon - The Collector's Edition 2 (56 CD)\03 - Argerich - Prokofiev - Ravel\05 - Maurice Ravel- Piano Concerto in G - 2. Adagio assai.wav

Peak level 67.8 %
Extraction speed 7.7 X
Track quality 100.0 %
Test CRC 0647968D
Copy CRC 0647968D
Accurately ripped (confidence 24) [9D20C033]
Copy OK

Track 6

Filename O:\Klassik\111 Years Of Deutsche Grammophon - The Collector's Edition 2 (56 CD)\03 - Argerich - Prokofiev - Ravel\06 - Maurice Ravel- Piano Concerto in G - 3. Presto.wav

Peak level 99.9 %
Extraction speed 8.0 X
Track quality 100.0 %
Test CRC 94F8326B
Copy CRC 94F8326B
Accurately ripped (confidence 24) [DD5C6CF2]
Copy OK

Track 7

Filename O:\Klassik\111 Years Of Deutsche Grammophon - The Collector's Edition 2 (56 CD)\03 - Argerich - Prokofiev - Ravel\07 - Maurice Ravel- Gaspard de la nuit - Ondine.wav

Pre-gap length 0:00:11.00

Peak level 88.8 %
Extraction speed 8.9 X
Track quality 100.0 %
Test CRC 6017C0D7
Copy CRC 6017C0D7
Accurately ripped (confidence 24) [95A86773]
Copy OK

Track 8

Filename O:\Klassik\111 Years Of Deutsche Grammophon - The Collector's Edition 2 (56 CD)\03 - Argerich - Prokofiev - Ravel\08 - Maurice Ravel- Gaspard de la nuit - Le gibet.wav

Peak level 42.3 %
Extraction speed 9.2 X
Track quality 100.0 %
Test CRC B2D1BA79
Copy CRC B2D1BA79
Accurately ripped (confidence 24) [68B8E4EF]
Copy OK

Track 9

Filename O:\Klassik\111 Years Of Deutsche Grammophon - The Collector's Edition 2 (56 CD)\03 - Argerich - Prokofiev - Ravel\09 - Maurice Ravel- Gaspard de la nuit - Scarbo.wav

Peak level 99.9 %
Extraction speed 10.0 X
Track quality 100.0 %
Test CRC B70EA45A
Copy CRC B70EA45A
Accurately ripped (confidence 24) [1AFB76A2]
Copy OK


All tracks accurately ripped

No errors occurred

End of status report

[Verification date: 14.03.2011 22:18:07]
[Disc ID: 00196437-00b6f4ae-7a109a09]
Pregap length 00:00:33.
Track [ CRC ] Status
01 [dd88c369] (36/68) Accurately ripped as in pressing(s) #1
02 [1c1c3ed3] (36/68) Accurately ripped as in pressing(s) #1
03 [75ae1d2b] (36/68) Accurately ripped as in pressing(s) #1
04 [57137886] (36/69) Accurately ripped as in pressing(s) #1
05 [9d20c033] (36/69) Accurately ripped as in pressing(s) #1
06 [dd5c6cf2] (36/69) Accurately ripped as in pressing(s) #1
07 [95a86773] (36/67) Accurately ripped as in pressing(s) #1
08 [68b8e4ef] (36/67) Accurately ripped as in pressing(s) #1
09 [1afb76a2] (36/64) Accurately ripped as in pressing(s) #1
Offsetted by 667:
01 [6d69f94f] (10/68) Accurately ripped as in pressing(s) #3
02 [da65abf1] (10/68) Accurately ripped as in pressing(s) #3
03 [3d4f045a] (10/68) Accurately ripped as in pressing(s) #3
04 [4172bd21] (10/69) Accurately ripped as in pressing(s) #3
05 [c7f591d6] (10/69) Accurately ripped as in pressing(s) #3
06 [0f9966aa] (10/69) Accurately ripped as in pressing(s) #3
07 [218b5b73] (10/67) Accurately ripped as in pressing(s) #3
08 [cd71b32a] (10/67) Accurately ripped as in pressing(s) #3
09 [75d5db13] (09/64) Accurately ripped as in pressing(s) #3
Offsetted by 1336:
01 [99cabd5e] (16/68) Accurately ripped as in pressing(s) #2
02 [799ef71c] (16/68) Accurately ripped as in pressing(s) #2
03 [0b38e992] (16/68) Accurately ripped as in pressing(s) #2
04 [80ab627a] (17/69) Accurately ripped as in pressing(s) #2
05 [608ec529] (17/69) Accurately ripped as in pressing(s) #2
06 [48b5957c] (17/69) Accurately ripped as in pressing(s) #2
07 [5dc497d8] (15/67) Accurately ripped as in pressing(s) #2
08 [4ed463cd] (15/67) Accurately ripped as in pressing(s) #2
09 [8fe57a48] (13/64) Accurately ripped as in pressing(s) #2

Track [ CRC32 ] [W/O NULL] [ LOG ]
– [14082449] [E0B1AEA1]
01 [8C618AE4] [29EEC67A] CRC32
02 [E1E706DF] [1F2A0B73] CRC32
03 [192442B8] [3C830C1E] CRC32
04 [ED2AECA0] [730429DE] CRC32
05 [0647968D] [BAEBC800] CRC32
06 [94F8326B] [6B5037C3] CRC32
07 [6017C0D7] [786C04E6] CRC32
08 [B2D1BA79] [BC5F1FDC] CRC32
09 [B70EA45A] [99F28D52] CRC32

111 Years of Deutsche Grammophon. The Collectors' Edition 2 [Deutsche Grammophon, 000289 477 9142 3] - Part 1 RE-UP

–––––––––––––––––––––––––––––––––––––––––-

111 Years of Deutsche Grammophon. The Collectors' Edition 2 [Deutsche Grammophon, 000289 477 9142 3] - Part 1 RE-UP

CD-04 - Beethoven: Piano Sonatas No.14 "Moonlight", No.13 "Pathétique" & No.23

Tracklist:

Mondschein
01. I (Adagio sostenuto - attacca) [06:37]
02. II (Allegretto - attacca) [02:12]
03. III (Presto agitato) [07:42]

Pathetique
04. I (Grave; allegro di molto e con brio) [09:29]
05. II (Adagio cantabile) [05:20]
06. III (Rondo: Allegro) [04:45]

Appassionata
07. I Allegro assai [10:33]
08. II (Andante con moto - attacca) [07:34]
09. III. Allegro, ma non troppo - Presto [08:13]

Personnel:

Daniel Barenboim

Exact Audio Copy V1.0 beta 1 from 15. November 2010

EAC extraction logfile from 28. December 2010, 13:33

Ludwig van Beethoven / Beethoven: Piano Sonatas No.14 "Moonlight", No.13 "Pathétique" & No.23 "Appassionata"

Used drive : TSSTcorpCD/DVDW SH-S182M Adapter: 0 ID: 1

Read mode : Secure
Utilize accurate stream : Yes
Defeat audio cache : Yes
Make use of C2 pointers : No

Read offset correction : 6
Overread into Lead-In and Lead-Out : No
Fill up missing offset samples with silence : Yes
Delete leading and trailing silent blocks : No
Null samples used in CRC calculations : Yes
Used interface : Installed external ASPI interface
Gap handling : Appended to previous track

Used output format : User Defined Encoder
Selected bitrate : 768 kBit/s
Quality : High
Add ID3 tag : No
Command line compressor : C:\Programme\Exact Audio Copy\FLAC\FLAC.EXE
Additional command line options : -V -8 -T "artist=%a" -T "title=%t" -T "album=%g" -T "date=%y" -T "tracknumber=%n" -T "genre=%m" %s


TOC of the extracted CD

Track | Start | Length | Start sector | End sector
––––––––––––––––––––––––––––-
1 | 0:00.32 | 6:37.58 | 32 | 29864
2 | 6:38.15 | 2:12.52 | 29865 | 39816
3 | 8:50.67 | 7:48.33 | 39817 | 74949
4 | 16:39.25 | 9:32.07 | 74950 | 117856
5 | 26:11.32 | 5:25.10 | 117857 | 142241
6 | 31:36.42 | 4:52.60 | 142242 | 164201
7 | 36:29.27 | 10:38.13 | 164202 | 212064
8 | 47:07.40 | 7:34.70 | 212065 | 246184
9 | 54:42.35 | 8:13.72 | 246185 | 283231


Track 1

Filename O:\Klassik\111 Years Of Deutsche Grammophon - The Collector's Edition 2 (56 CD)\04 - Barenboim - Beethoven - Sonatas\01 - Piano Sonata No.14 in C sharp minor, Op.27 No.2 -''Moonlight'' - 1. Adagio sostenuto.wav

Pre-gap length 0:00:02.32

Peak level 23.5 %
Extraction speed 4.5 X
Track quality 100.0 %
Test CRC F50D18E1
Copy CRC F50D18E1
Accurately ripped (confidence 5) [C38180BB]
Copy OK

Track 2

Filename O:\Klassik\111 Years Of Deutsche Grammophon - The Collector's Edition 2 (56 CD)\04 - Barenboim - Beethoven - Sonatas\02 - Piano Sonata No.14 in C sharp minor, Op.27 No.2 -''Moonlight'' - 2. Allegretto.wav

Peak level 44.6 %
Extraction speed 4.3 X
Track quality 100.0 %
Test CRC BBDF8492
Copy CRC BBDF8492
Accurately ripped (confidence 5) [2B1E6D93]
Copy OK

Track 3

Filename O:\Klassik\111 Years Of Deutsche Grammophon - The Collector's Edition 2 (56 CD)\04 - Barenboim - Beethoven - Sonatas\03 - Piano Sonata No.14 in C sharp minor, Op.27 No.2 -''Moonlight'' - 3. Presto agitato.wav

Peak level 89.3 %
Extraction speed 5.7 X
Track quality 100.0 %
Test CRC FC04FB15
Copy CRC FC04FB15
Accurately ripped (confidence 5) [DB70481C]
Copy OK

Track 4

Filename O:\Klassik\111 Years Of Deutsche Grammophon - The Collector's Edition 2 (56 CD)\04 - Barenboim - Beethoven - Sonatas\04 - Piano Sonata No.8 in C minor, Op.13 -''Pathétique'' - 1. Grave - Allegro di molto e con brio.wav

Pre-gap length 0:00:05.68

Peak level 89.7 %
Extraction speed 5.6 X
Track quality 100.0 %
Test CRC B393AAA2
Copy CRC B393AAA2
Accurately ripped (confidence 5) [E8C8DA5B]
Copy OK

Track 5

Filename O:\Klassik\111 Years Of Deutsche Grammophon - The Collector's Edition 2 (56 CD)\04 - Barenboim - Beethoven - Sonatas\05 - Piano Sonata No.8 in C minor, Op.13 -''Pathétique'' - 2. Adagio cantabile.wav

Pre-gap length 0:00:03.00

Peak level 50.2 %
Extraction speed 6.3 X
Track quality 100.0 %
Test CRC FF8F501A
Copy CRC FF8F501A
Accurately ripped (confidence 5) [89C9CA65]
Copy OK

Track 6

Filename O:\Klassik\111 Years Of Deutsche Grammophon - The Collector's Edition 2 (56 CD)\04 - Barenboim - Beethoven - Sonatas\06 - Piano Sonata No.8 in C minor, Op.13 -''Pathétique'' - 3. Rondo (Allegro).wav

Pre-gap length 0:00:05.02

Peak level 77.9 %
Extraction speed 6.8 X
Track quality 100.0 %
Test CRC 46981100
Copy CRC 46981100
Accurately ripped (confidence 5) [F6902155]
Copy OK

Track 7

Filename O:\Klassik\111 Years Of Deutsche Grammophon - The Collector's Edition 2 (56 CD)\04 - Barenboim - Beethoven - Sonatas\07 - Piano Sonata No.23 in F minor, Op.57 -''Appassionata'' - 1. Allegro assai.wav

Pre-gap length 0:00:06.70

Peak level 95.5 %
Extraction speed 7.7 X
Track quality 100.0 %
Test CRC C775FE2C
Copy CRC C775FE2C
Accurately ripped (confidence 4) [7A77F1C4]
Copy OK

Track 8

Filename O:\Klassik\111 Years Of Deutsche Grammophon - The Collector's Edition 2 (56 CD)\04 - Barenboim - Beethoven - Sonatas\08 - Piano Sonata No.23 in F minor, Op.57 -''Appassionata'' - 2. Andante con moto.wav

Pre-gap length 0:00:04.15

Peak level 79.7 %
Extraction speed 7.7 X
Track quality 99.9 %
Test CRC 9FE9D8CD
Copy CRC 9FE9D8CD
Accurately ripped (confidence 5) [8B28CD30]
Copy OK

Track 9

Filename O:\Klassik\111 Years Of Deutsche Grammophon - The Collector's Edition 2 (56 CD)\04 - Barenboim - Beethoven - Sonatas\09 - Piano Sonata No.23 in F minor, Op.57 -''Appassionata'' - 3. Allegro ma non troppo.wav

Peak level 93.3 %
Extraction speed 8.6 X
Track quality 100.0 %
Test CRC A830E1E2
Copy CRC A830E1E2
Accurately ripped (confidence 5) [2B57BC66]
Copy OK


All tracks accurately ripped

No errors occurred

End of status report

[Verification date: 14.03.2011 22:30:42]
[Disc ID: 0013feef-0095c675-6f0ec009]
Pregap length 00:00:32.
Track [ CRC ] Status
01 [c38180bb] (15/24) Accurately ripped as in pressing(s) #1
02 [2b1e6d93] (15/25) Accurately ripped as in pressing(s) #1
03 [db70481c] (14/24) Accurately ripped as in pressing(s) #1
04 [e8c8da5b] (14/24) Accurately ripped as in pressing(s) #1
05 [89c9ca65] (14/24) Accurately ripped as in pressing(s) #1
06 [f6902155] (14/24) Accurately ripped as in pressing(s) #1
07 [7a77f1c4] (13/23) Accurately ripped as in pressing(s) #1
08 [8b28cd30] (15/25) Accurately ripped as in pressing(s) #1
09 [2b57bc66] (15/23) Accurately ripped as in pressing(s) #1
Offsetted by -2181:
01 [1665ece8] (03/24) Accurately ripped as in pressing(s) #3
02 [28d361db] (04/25) Accurately ripped as in pressing(s) #2
03 [8e99f9ac] (04/24) Accurately ripped as in pressing(s) #2
04 [3159a711] (04/24) Accurately ripped as in pressing(s) #2
05 [590e85e0] (04/24) Accurately ripped as in pressing(s) #2
06 [f9f3dd4e] (04/24) Accurately ripped as in pressing(s) #2
07 [bf70834f] (04/23) Accurately ripped as in pressing(s) #2
08 [c427802f] (04/25) Accurately ripped as in pressing(s) #2
09 [8044b477] (03/23) Accurately ripped as in pressing(s) #2
Offsetted by 667:
01 [01e9e245] (03/24) Accurately ripped as in pressing(s) #2
02 [dcee9668] (03/25) Accurately ripped as in pressing(s) #3
03 [5cfbf43e] (03/24) Accurately ripped as in pressing(s) #3
04 [22b66f89] (03/24) Accurately ripped as in pressing(s) #3
05 [41a21724] (03/24) Accurately ripped as in pressing(s) #3
06 [d15fc9ae] (03/24) Accurately ripped as in pressing(s) #3
07 [b74c79b2] (03/23) Accurately ripped as in pressing(s) #3
08 [09b3aa26] (03/25) Accurately ripped as in pressing(s) #3
09 [dba96f72] (02/23) Accurately ripped as in pressing(s) #4

Track [ CRC32 ] [W/O NULL] [ LOG ]
– [889978DD] [C6BCC845]
01 [F50D18E1] [BF560430] CRC32
02 [BBDF8492] [8F5B9438] CRC32
03 [FC04FB15] [59E80908] CRC32
04 [B393AAA2] [7F1D2025] CRC32
05 [FF8F501A] [6F0189F4] CRC32
06 [46981100] [7853A044] CRC32
07 [C775FE2C] [D99E7D6D] CRC32
08 [9FE9D8CD] [4A0AD9EB] CRC32
09 [A830E1E2] [BE302CA3] CRC32

111 Years of Deutsche Grammophon. The Collectors' Edition 2 [Deutsche Grammophon, 000289 477 9142 3] - Part 1 RE-UP

–––––––––––––––––––––––––––––––––––––––––-

111 Years of Deutsche Grammophon. The Collectors' Edition 2 [Deutsche Grammophon, 000289 477 9142 3] - Part 1 RE-UP

CD-05 - Bach, J.S.: Arias

Tracklist:

01. Kantate BWV 197 No.8: Vergnugen und Lust, Gedeihen und Heil [03:16]
02. Kantate BWV 58 No.3: Ich Bin Vergnugt In Meinem Leiden [03:46]
03. Kantate BWV 204 No.4: Die Schatzbarkeit Der Weiten Erden [04:06]
04. Kantate BWV 97 No.4: Ich Traue Seiner Gnaden [05:21]
05. Kantate BWV 115 No.4: Bete Aber Auch Dabei [07:06]
06. Kantate BWV 171 No.4: Jesus Soll Mein Erstes Wort [04:12]
07. Messe h-moll, BWV 232 No.23: Benedictus, Qui Venit In Nomine Domini [04:15]
08. Messe h-moll, BWV 232, No.5: Laudamus Te [04:42]
09. Kantate BWV 202 No.5: Wenn Die Fruhlingslufte Streichen [02:38]
10. Kantate BWV 36 No.7: Auch Mit Gedampften, Schwachen Stimmen [06:46]
11. Kantate BWV 187 No.5: Gott Versorget Alles Leben [03:24]
12. Kantate BWV 84 No.3: Ich Esse Mit Freuden Mein Weniges Brot [04:59]
13. Kantate BWV 105 No.5: Kann Ich Nur Jesum Mir Zum Freunde Machen [05:30]

Personnel:

Kathleen Battle · Itzhak Perlman
Orchestra of St. Luke's · John Nelson

Exact Audio Copy V1.0 beta 1 from 15. November 2010

EAC extraction logfile from 28. December 2010, 14:31

Johann Sebastian Bach / Arias

Used drive : TSSTcorpCD/DVDW SH-S182M Adapter: 0 ID: 1

Read mode : Secure
Utilize accurate stream : Yes
Defeat audio cache : Yes
Make use of C2 pointers : No

Read offset correction : 6
Overread into Lead-In and Lead-Out : No
Fill up missing offset samples with silence : Yes
Delete leading and trailing silent blocks : No
Null samples used in CRC calculations : Yes
Used interface : Installed external ASPI interface
Gap handling : Appended to previous track

Used output format : User Defined Encoder
Selected bitrate : 768 kBit/s
Quality : High
Add ID3 tag : No
Command line compressor : C:\Programme\Exact Audio Copy\FLAC\FLAC.EXE
Additional command line options : -V -8 -T "artist=%a" -T "title=%t" -T "album=%g" -T "date=%y" -T "tracknumber=%n" -T "genre=%m" %s


TOC of the extracted CD

Track | Start | Length | Start sector | End sector
––––––––––––––––––––––––––––-
1 | 0:00.33 | 3:16.00 | 33 | 14732
2 | 3:16.33 | 3:46.00 | 14733 | 31682
3 | 7:02.33 | 4:06.00 | 31683 | 50132
4 | 11:08.33 | 5:21.00 | 50133 | 74207
5 | 16:29.33 | 7:07.00 | 74208 | 106232
6 | 23:36.33 | 4:12.00 | 106233 | 125132
7 | 27:48.33 | 4:15.00 | 125133 | 144257
8 | 32:03.33 | 4:42.00 | 144258 | 165407
9 | 36:45.33 | 2:38.00 | 165408 | 177257
10 | 39:23.33 | 6:46.00 | 177258 | 207707
11 | 46:09.33 | 3:24.00 | 207708 | 223007
12 | 49:33.33 | 4:59.00 | 223008 | 245432
13 | 54:32.33 | 5:30.00 | 245433 | 270182


Track 1

Filename O:\Klassik\111 Years Of Deutsche Grammophon - The Collector's Edition 2 (56 CD)\05 - Battle - Bach - Arias\01 - Cantata, BWV 197 ''Gott ist unsere Zuversicht'' - Aria ''Vergnügen und Lust'' (Soprano).wav

Pre-gap length 0:00:02.33

Peak level 78.9 %
Extraction speed 3.6 X
Track quality 100.0 %
Test CRC 659B6090
Copy CRC 659B6090
Accurately ripped (confidence 4) [750D455D]
Copy OK

Track 2

Filename O:\Klassik\111 Years Of Deutsche Grammophon - The Collector's Edition 2 (56 CD)\05 - Battle - Bach - Arias\02 - Cantata, BWV 58 ''Ach Gott, wie manches Herzeleid'' - Aria ''Ich bin vergnügt in meinem Leiden'' (Soprano).wav

Peak level 75.3 %
Extraction speed 4.1 X
Track quality 100.0 %
Test CRC 257129CA
Copy CRC 257129CA
Accurately ripped (confidence 4) [C5BC9A2E]
Copy OK

Track 3

Filename O:\Klassik\111 Years Of Deutsche Grammophon - The Collector's Edition 2 (56 CD)\05 - Battle - Bach - Arias\03 - Cantata, BWV 204 ''Ich bin vergnügt'' - Aria ''Die Schätzbarkeit der weiten Erde''.wav

Peak level 86.2 %
Extraction speed 4.9 X
Track quality 100.0 %
Test CRC E2079F9C
Copy CRC E2079F9C
Accurately ripped (confidence 4) [834780A5]
Copy OK

Track 4

Filename O:\Klassik\111 Years Of Deutsche Grammophon - The Collector's Edition 2 (56 CD)\05 - Battle - Bach - Arias\04 - Cantata, BWV 97 ''In allen meinen Taten'' - Aria ''Ich traue seiner Gnaden'' (Tenore).wav

Peak level 85.4 %
Extraction speed 5.7 X
Track quality 100.0 %
Test CRC AC3E1282
Copy CRC AC3E1282
Accurately ripped (confidence 4) [08780927]
Copy OK

Track 5

Filename O:\Klassik\111 Years Of Deutsche Grammophon - The Collector's Edition 2 (56 CD)\05 - Battle - Bach - Arias\05 - Cantata, BWV 115 ''Mache dich, mein Geist, bereit'' - Aria ''Bete, bete aber auch dabei'' (Soprano).wav

Peak level 62.7 %
Extraction speed 5.9 X
Track quality 99.9 %
Test CRC 8D7B4FB0
Copy CRC 8D7B4FB0
Accurately ripped (confidence 4) [488C1D77]
Copy OK

Track 6

Filename O:\Klassik\111 Years Of Deutsche Grammophon - The Collector's Edition 2 (56 CD)\05 - Battle - Bach - Arias\06 - Cantata, BWV 171 ''Gott, wie dein Name, so ist auch dein Ruhm'' - Aria ''Jesus soll mein erstes Wort'' (Soprano).wav

Peak level 85.7 %
Extraction speed 5.6 X
Track quality 99.9 %
Test CRC AB9BA61A
Copy CRC AB9BA61A
Accurately ripped (confidence 4) [7DBE18A8]
Copy OK

Track 7

Filename O:\Klassik\111 Years Of Deutsche Grammophon - The Collector's Edition 2 (56 CD)\05 - Battle - Bach - Arias\07 - Mass in B minor, BWV 232 - Kyrie- No.1 Kyrie eleison - Sanctus - Benedictus.wav

Peak level 63.0 %
Extraction speed 5.9 X
Track quality 99.9 %
Test CRC 3EEADF3F
Copy CRC 3EEADF3F
Accurately ripped (confidence 4) [EB9FF972]
Copy OK

Track 8

Filename O:\Klassik\111 Years Of Deutsche Grammophon - The Collector's Edition 2 (56 CD)\05 - Battle - Bach - Arias\08 - Mass in B minor, BWV 232 - Kyrie- No.1 Kyrie eleison - Gloria - Laudamus te.wav

Peak level 94.5 %
Extraction speed 7.0 X
Track quality 100.0 %
Test CRC FDCD1194
Copy CRC FDCD1194
Accurately ripped (confidence 4) [BF2C2748]
Copy OK

Track 9

Filename O:\Klassik\111 Years Of Deutsche Grammophon - The Collector's Edition 2 (56 CD)\05 - Battle - Bach - Arias\09 - Cantata No.202 ''Weichet nur, betrübte Schatten'' (Wedding Cantata), BWV 202 - 5. Aria- Wenn die Frühlingslüfte streichen.wav

Peak level 71.5 %
Extraction speed 6.6 X
Track quality 100.0 %
Test CRC 463D3A84
Copy CRC 463D3A84
Accurately ripped (confidence 4) [38CC9986]
Copy OK

Track 10

Filename O:\Klassik\111 Years Of Deutsche Grammophon - The Collector's Edition 2 (56 CD)\05 - Battle - Bach - Arias\10 - ''Schwingt freudig euch empor'' BWV 36 - Part 2 - 7. Aria ''Auch mit gedämpften, schwachen Stimmen'' (Soprano).wav

Peak level 96.1 %
Extraction speed 8.0 X
Track quality 100.0 %
Test CRC 19475208
Copy CRC 19475208
Accurately ripped (confidence 5) [60EA5C1C]
Copy OK

Track 11

Filename O:\Klassik\111 Years Of Deutsche Grammophon - The Collector's Edition 2 (56 CD)\05 - Battle - Bach - Arias\11 - Cantata, BWV 187 ''Es wartet alles auf dich'' - Zweiter Teil - Aria ''Gott versorget alles Leben'' (Soprano).wav

Peak level 85.6 %
Extraction speed 7.5 X
Track quality 100.0 %
Test CRC 3C7EB498
Copy CRC 3C7EB498
Accurately ripped (confidence 4) [E9932168]
Copy OK

Track 12

Filename O:\Klassik\111 Years Of Deutsche Grammophon - The Collector's Edition 2 (56 CD)\05 - Battle - Bach - Arias\12 - Ich bin vergnügt mit meinem Glücke Cantata, BWV 84 - 3. Aria- Ich esse mit Freuden mein weniges Brot.wav

Peak level 73.3 %
Extraction speed 8.2 X
Track quality 100.0 %
Test CRC 572D9F93
Copy CRC 572D9F93
Accurately ripped (confidence 3) [13B0F7DC]
Copy OK

Track 13

Filename O:\Klassik\111 Years Of Deutsche Grammophon - The Collector's Edition 2 (56 CD)\05 - Battle - Bach - Arias\13 - Cantata, BWV 105 ''Herr, gehe nicht ins Gericht'' - 5. Aria- ''Kann ich nur Jesum mir zum Freunde machen''.wav

Peak level 98.2 %
Extraction speed 8.5 X
Track quality 100.0 %
Test CRC 94691E0A
Copy CRC 94691E0A
Accurately ripped (confidence 4) [F2C8A492]
Copy OK


All tracks accurately ripped

No errors occurred

End of status report

[Verification date: 14.03.2011 23:25:11]
[Disc ID: 001c0194-011b2f78-be0e120d]
Pregap length 00:00:33.
Track [ CRC ] Status
01 [750d455d] (14/42) Accurately ripped as in pressing(s) #1
02 [c5bc9a2e] (14/42) Accurately ripped as in pressing(s) #1
03 [834780a5] (14/42) Accurately ripped as in pressing(s) #1
04 [08780927] (14/42) Accurately ripped as in pressing(s) #1
05 [488c1d77] (14/42) Accurately ripped as in pressing(s) #1
06 [7dbe18a8] (14/42) Accurately ripped as in pressing(s) #1
07 [eb9ff972] (14/42) Accurately ripped as in pressing(s) #1
08 [bf2c2748] (14/41) Accurately ripped as in pressing(s) #1
09 [38cc9986] (14/41) Accurately ripped as in pressing(s) #1
10 [60ea5c1c] (15/40) Accurately ripped as in pressing(s) #1
11 [e9932168] (14/42) Accurately ripped as in pressing(s) #1
12 [13b0f7dc] (13/41) Accurately ripped as in pressing(s) #1
13 [f2c8a492] (14/41) Accurately ripped as in pressing(s) #1
Offsetted by 67:
01 [63334c0e] (04/42) Partial match to pressing(s) #4
02 [9025f19c] (04/42) Partial match to pressing(s) #4
03 [0f96e71a] (04/42) Partial match to pressing(s) #4
04 [e2e21548] (04/42) Partial match to pressing(s) #4
05 [997d4a41] (04/42) Partial match to pressing(s) #4
06 [b365bb2b] (04/42) Partial match to pressing(s) #4
07 [b03dbd27] (04/42) Partial match to pressing(s) #4
08 [1f438ed0] (04/41) Partial match to pressing(s) #4
09 [eff5bda3] (04/41) Partial match to pressing(s) #4
10 [d6d04ea1] (03/40) Partial match to pressing(s) #4
11 [9efb4a4a] (04/42) Partial match to pressing(s) #4
12 [1fe31243] (04/41) Partial match to pressing(s) #4
13 [6f294c67] (04/41) Partial match to pressing(s) #4
Offsetted by 1540:
01 [28002ad4] (11/42) Accurately ripped as in pressing(s) #3
02 [301eb1c0] (11/42) Accurately ripped as in pressing(s) #3
03 [150effab] (11/42) Accurately ripped as in pressing(s) #3
04 [f871f947] (11/42) Accurately ripped as in pressing(s) #3
05 [11efcbc1] (11/42) Accurately ripped as in pressing(s) #3
06 [576a9389] (11/42) Accurately ripped as in pressing(s) #3
07 [82f8b425] (11/42) Accurately ripped as in pressing(s) #3
08 [ec829fb7] (11/41) Accurately ripped as in pressing(s) #2
09 [1ea0e89f] (11/41) Accurately ripped as in pressing(s) #2
10 [5bda2d26] (10/40) Accurately ripped as in pressing(s) #3
11 [ca940762] (11/42) Accurately ripped as in pressing(s) #3
12 [ef0e44dd] (11/41) Accurately ripped as in pressing(s) #3
13 [5bacc9f6] (11/41) Accurately ripped as in pressing(s) #2
Offsetted by 1762:
01 [1a3d0536] (11/42) Accurately ripped as in pressing(s) #2
02 [644b35d5] (11/42) Accurately ripped as in pressing(s) #2
03 [62fd23ea] (11/42) Accurately ripped as in pressing(s) #2
04 [d8f24985] (11/42) Accurately ripped as in pressing(s) #2
05 [5260ccda] (11/42) Accurately ripped as in pressing(s) #2
06 [fa27d261] (11/42) Accurately ripped as in pressing(s) #2
07 [1d8d5fad] (11/42) Accurately ripped as in pressing(s) #2
08 [2ab9d164] (10/41) Accurately ripped as in pressing(s) #3
09 [5fca3b7d] (10/41) Accurately ripped as in pressing(s) #3
10 [10dec6f9] (10/40) Accurately ripped as in pressing(s) #2
11 [50ddc162] (11/42) Accurately ripped as in pressing(s) #2
12 [4760e736] (11/41) Accurately ripped as in pressing(s) #2
13 [54a86792] (10/41) Accurately ripped as in pressing(s) #3

Track [ CRC32 ] [W/O NULL] [ LOG ]
– [0CD78439] [61829D93]
01 [659B6090] [F41B14DC] CRC32
02 [257129CA] [A584E69E] CRC32
03 [E2079F9C] [0CAF0EBF] CRC32
04 [AC3E1282] [0BA07A22] CRC32
05 [8D7B4FB0] [8E77B165] CRC32
06 [AB9BA61A] [2962AF99] CRC32
07 [3EEADF3F] [B5F8D7FE] CRC32
08 [FDCD1194] [BD3FBB86] CRC32
09 [463D3A84] [BF6183F1] CRC32
10 [19475208] [8E9B9FB8] CRC32
11 [3C7EB498] [60541742] CRC32
12 [572D9F93] [0B2B8DE2] CRC32
13 [94691E0A] [E2B096D5] CRC32

111 Years of Deutsche Grammophon. The Collectors' Edition 2 [Deutsche Grammophon, 000289 477 9142 3] - Part 1 RE-UP

–––––––––––––––––––––––––––––––––––––––––-

111 Years of Deutsche Grammophon. The Collectors' Edition 2 [Deutsche Grammophon, 000289 477 9142 3] - Part 1 RE-UP

CD-06 - Mahler: Symphony No.1


Tracklist:

01. I Langsam. Schleppend. Wie ein Naturlaut - Im Anfang sehr gemchlich [16:22]
02. II Kraftig bewegt, doch nicht zu schnell - Trio. Recht gemchlich [08:54]
03. III Feierlich und gemesen, ohne zuschleppen [10:24]
04. IV Stermisch bewegt [20:09]

Personnel:

Concertgebouworkest Amsterdam
Leonard Bernstein

Exact Audio Copy V1.0 beta 1 from 15. November 2010

EAC extraction logfile from 28. December 2010, 15:03

Gustav Mahler / Symphony No.1

Used drive : TSSTcorpCD/DVDW SH-S182M Adapter: 0 ID: 1

Read mode : Secure
Utilize accurate stream : Yes
Defeat audio cache : Yes
Make use of C2 pointers : No

Read offset correction : 6
Overread into Lead-In and Lead-Out : No
Fill up missing offset samples with silence : Yes
Delete leading and trailing silent blocks : No
Null samples used in CRC calculations : Yes
Used interface : Installed external ASPI interface
Gap handling : Appended to previous track

Used output format : User Defined Encoder
Selected bitrate : 768 kBit/s
Quality : High
Add ID3 tag : No
Command line compressor : C:\Programme\Exact Audio Copy\FLAC\FLAC.EXE
Additional command line options : -V -8 -T "artist=%a" -T "title=%t" -T "album=%g" -T "date=%y" -T "tracknumber=%n" -T "genre=%m" %s


TOC of the extracted CD

Track | Start | Length | Start sector | End sector
––––––––––––––––––––––––––––-
1 | 0:00.33 | 16:27.65 | 33 | 74122
2 | 16:28.23 | 9:03.32 | 74123 | 114879
3 | 25:31.55 | 10:24.70 | 114880 | 161749
4 | 35:56.50 | 20:09.13 | 161750 | 252437


Track 1

Filename O:\Klassik\111 Years Of Deutsche Grammophon - The Collector's Edition 2 (56 CD)\06 - Bernstein - Mahler\01 - Symphony No.1 in D - 1. Langsam. Schleppend.wav

Pre-gap length 0:00:02.33

Peak level 98.5 %
Extraction speed 5.0 X
Track quality 99.9 %
Test CRC 49CC8F04
Copy CRC 49CC8F04
Accurately ripped (confidence 7) [04903E38]
Copy OK

Track 2

Filename O:\Klassik\111 Years Of Deutsche Grammophon - The Collector's Edition 2 (56 CD)\06 - Bernstein - Mahler\02 - Symphony No.1 in D - 2. Kräftig bewegt.wav

Pre-gap length 0:00:05.23

Peak level 97.7 %
Extraction speed 5.8 X
Track quality 100.0 %
Test CRC 56C319A6
Copy CRC 56C319A6
Accurately ripped (confidence 7) [AC6D3F37]
Copy OK

Track 3

Filename O:\Klassik\111 Years Of Deutsche Grammophon - The Collector's Edition 2 (56 CD)\06 - Bernstein - Mahler\03 - Symphony No.1 in D - 3. Feierlich und gemessen, ohne zu schleppen.wav

Pre-gap length 0:00:08.42

Peak level 74.5 %
Extraction speed 6.8 X
Track quality 99.9 %
Test CRC F3452762
Copy CRC F3452762
Accurately ripped (confidence 7) [C8C39822]
Copy OK

Track 4

Filename O:\Klassik\111 Years Of Deutsche Grammophon - The Collector's Edition 2 (56 CD)\06 - Bernstein - Mahler\04 - Symphony No.1 in D - 4. Stürmisch bewegt.wav

Peak level 97.7 %
Extraction speed 8.0 X
Track quality 100.0 %
Test CRC AC1BFEED
Copy CRC AC1BFEED
Accurately ripped (confidence 7) [FA29B0A2]
Copy OK


All tracks accurately ripped

No errors occurred

End of status report

[Verification date: 14.03.2011 23:26:13]
[Disc ID: 00093458-0024a73d-300d2504]
Pregap length 00:00:33.
Track [ CRC ] Status
01 [04903e38] (14/94) Accurately ripped as in pressing(s) #2
02 [ac6d3f37] (14/98) Accurately ripped as in pressing(s) #2
03 [c8c39822] (15/98) Accurately ripped as in pressing(s) #2
04 [fa29b0a2] (15/94) Accurately ripped as in pressing(s) #2
Offsetted by -1142:
01 [94e8a1ec] (03/94) Accurately ripped as in pressing(s) #6
02 [078516d0] (04/98) Accurately ripped as in pressing(s) #6
03 [5e572a59] (04/98) Accurately ripped as in pressing(s) #6
04 [0a4d0962] (04/94) Accurately ripped as in pressing(s) #6
Offsetted by 667:
01 [c5758ba2] (57/94) Accurately ripped as in pressing(s) #1
02 [edd0f5f5] (60/98) Accurately ripped as in pressing(s) #1
03 [36ab63c1] (59/98) Accurately ripped as in pressing(s) #1
04 [5d081fe9] (56/94) Accurately ripped as in pressing(s) #1
Offsetted by 1312:
01 [760f3590] (06/94) Accurately ripped as in pressing(s) #3
02 [b84561a8] (06/98) Accurately ripped as in pressing(s) #3
03 [9cba4e43] (06/98) Accurately ripped as in pressing(s) #3
04 [23117d84] (06/94) Accurately ripped as in pressing(s) #3
Offsetted by 1741:
01 [4d4244b0] (05/94) Accurately ripped as in pressing(s) #5
02 [b19bca45] (05/98) Accurately ripped as in pressing(s) #5
03 [f7199e03] (05/98) Accurately ripped as in pressing(s) #5
04 [d2b113e5] (05/94) Accurately ripped as in pressing(s) #5

Track [ CRC32 ] [W/O NULL] [ LOG ]
– [7B44471A] [2C032348]
01 [49CC8F04] [98F106EA] CRC32
02 [56C319A6] [3BE57185] CRC32
03 [F3452762] [F4AEEE85] CRC32
04 [AC1BFEED] [8D318A5D] CRC32

111 Years of Deutsche Grammophon. The Collectors' Edition 2 [Deutsche Grammophon, 000289 477 9142 3] - Part 1 RE-UP

–––––––––––––––––––––––––––––––––––––––––-

111 Years of Deutsche Grammophon. The Collectors' Edition 2 [Deutsche Grammophon, 000289 477 9142 3] - Part 1 RE-UP

CD-07 - Chopin: Piano Concertos Nos.1 & 2

Tracklist:

Piano Concerto No. 1 in E minor, Op. 11
01. 1. Allegro maestoso [20:50]
02. 2. Romance. Larghetto [10:37]
03. 3. Rondo (Vivace) [09:40]

Piano Concerto No. 2 in F minor, Op. 21
04. 1. Maestoso [14:41]
05. 2. Larghetto [09:57]
06. 3. Allegro vivace [08:52]

Personnel:

Rafal Blechacz
Royal Concertgebouw Orchestra
Jerzy Semkow

Exact Audio Copy V1.0 beta 1 from 15. November 2010

EAC extraction logfile from 28. December 2010, 15:40

Frédéric Chopin / Piano Concertos Nos.1 & 2

Used drive : TSSTcorpCD/DVDW SH-S182M Adapter: 0 ID: 1

Read mode : Secure
Utilize accurate stream : Yes
Defeat audio cache : Yes
Make use of C2 pointers : No

Read offset correction : 6
Overread into Lead-In and Lead-Out : No
Fill up missing offset samples with silence : Yes
Delete leading and trailing silent blocks : No
Null samples used in CRC calculations : Yes
Used interface : Installed external ASPI interface
Gap handling : Appended to previous track

Used output format : User Defined Encoder
Selected bitrate : 768 kBit/s
Quality : High
Add ID3 tag : No
Command line compressor : C:\Programme\Exact Audio Copy\FLAC\FLAC.EXE
Additional command line options : -V -8 -T "artist=%a" -T "title=%t" -T "album=%g" -T "date=%y" -T "tracknumber=%n" -T "genre=%m" %s


TOC of the extracted CD

Track | Start | Length | Start sector | End sector
––––––––––––––––––––––––––––-
1 | 0:00.00 | 20:50.31 | 0 | 93780
2 | 20:50.31 | 10:37.42 | 93781 | 141597
3 | 31:27.73 | 9:51.15 | 141598 | 185937
4 | 41:19.13 | 14:41.49 | 185938 | 252061
5 | 56:00.62 | 9:57.37 | 252062 | 296873
6 | 65:58.24 | 8:52.04 | 296874 | 336777


Track 1

Filename O:\Klassik\111 Years Of Deutsche Grammophon - The Collector's Edition 2 (56 CD)\07 - Blechacz - Chopin - Concertos\01 - Piano Concerto No.1 in E minor, Op.11 - 1. Allegro maestoso.wav

Pre-gap length 0:00:02.00

Peak level 78.6 %
Extraction speed 5.5 X
Track quality 100.0 %
Test CRC 877C9E84
Copy CRC 877C9E84
Accurately ripped (confidence 2) [98EB673D]
Copy OK

Track 2

Filename O:\Klassik\111 Years Of Deutsche Grammophon - The Collector's Edition 2 (56 CD)\07 - Blechacz - Chopin - Concertos\02 - Piano Concerto No.1 in E minor, Op.11 - 2. Romance (Larghetto).wav

Peak level 43.1 %
Extraction speed 6.7 X
Track quality 99.9 %
Test CRC A670867E
Copy CRC A670867E
Accurately ripped (confidence 2) [32467F7A]
Copy OK

Track 3

Filename O:\Klassik\111 Years Of Deutsche Grammophon - The Collector's Edition 2 (56 CD)\07 - Blechacz - Chopin - Concertos\03 - Piano Concerto No.1 in E minor, Op.11 - 3. Rondo (Vivace).wav

Peak level 88.8 %
Extraction speed 7.2 X
Track quality 100.0 %
Test CRC 8031B11C
Copy CRC 8031B11C
Accurately ripped (confidence 2) [171E5C3F]
Copy OK

Track 4

Filename O:\Klassik\111 Years Of Deutsche Grammophon - The Collector's Edition 2 (56 CD)\07 - Blechacz - Chopin - Concertos\04 - Piano Concerto No.2 in F minor, Op.21 - 1. Maestoso.wav

Pre-gap length 0:00:10.60

Peak level 93.2 %
Extraction speed 8.5 X
Track quality 100.0 %
Test CRC BF33FA9F
Copy CRC BF33FA9F
Accurately ripped (confidence 2) [102358EA]
Copy OK

Track 5

Filename O:\Klassik\111 Years Of Deutsche Grammophon - The Collector's Edition 2 (56 CD)\07 - Blechacz - Chopin - Concertos\05 - Piano Concerto No.2 in F minor, Op.21 - 2. Larghetto.wav

Peak level 56.2 %
Extraction speed 9.7 X
Track quality 100.0 %
Test CRC 2681F91E
Copy CRC 2681F91E
Accurately ripped (confidence 2) [25C98E92]
Copy OK

Track 6

Filename O:\Klassik\111 Years Of Deutsche Grammophon - The Collector's Edition 2 (56 CD)\07 - Blechacz - Chopin - Concertos\06 - Piano Concerto No.2 in F minor, Op.21 - 3. Allegro vivace.wav

Peak level 98.8 %
Extraction speed 9.6 X
Track quality 100.0 %
Test CRC 7269968A
Copy CRC 7269968A
Accurately ripped (confidence 2) [0E724D42]
Copy OK


All tracks accurately ripped

No errors occurred

End of status report

[Verification date: 14.03.2011 23:27:10]
[Disc ID: 0013f197-00671325-55118a06]
Track [ CRC ] Status
01 [98eb673d] (30/43) Accurately ripped as in pressing(s) #1
02 [32467f7a] (30/44) Accurately ripped as in pressing(s) #1
03 [171e5c3f] (31/45) Accurately ripped as in pressing(s) #1
04 [102358ea] (30/44) Accurately ripped as in pressing(s) #1
05 [25c98e92] (30/44) Accurately ripped as in pressing(s) #1
06 [0e724d42] (29/43) Accurately ripped as in pressing(s) #1
Offsetted by -12:
01 [275e72a9] (08/43) Accurately ripped as in pressing(s) #2
02 [6aa86482] (09/44) Accurately ripped as in pressing(s) #2
03 [58f943f9] (09/45) Accurately ripped as in pressing(s) #2
04 [e453a93e] (09/44) Accurately ripped as in pressing(s) #2
05 [c2e877c3] (09/44) Accurately ripped as in pressing(s) #2
06 [a114a22b] (09/43) Accurately ripped as in pressing(s) #2

Track [ CRC32 ] [W/O NULL] [ LOG ]
– [807C019D] [A85D3944]
01 [877C9E84] [A3E683B5] CRC32
02 [A670867E] [5223ADA4] CRC32
03 [8031B11C] [DBE7E5CF] CRC32
04 [BF33FA9F] [F1622F03] CRC32
05 [2681F91E] [A79F5F88] CRC32
06 [7269968A] [38B98DEC] CRC32

111 Years of Deutsche Grammophon. The Collectors' Edition 2 [Deutsche Grammophon, 000289 477 9142 3] - Part 1 RE-UP

–––––––––––––––––––––––––––––––––––––––––-

111 Years of Deutsche Grammophon. The Collectors' Edition 2 [Deutsche Grammophon, 000289 477 9142 3] - Part 1 RE-UP

CD-08 - Mozart, W.A.: Clarinet Concerto, K.622; Flute Concerto, K.313; Bassoon Concerto, K.191

Tracklist:

Clarinet Concerto in A major, K.622
01. 1. Allegro [13:05]
02. 2. Adagio [08:08]
03. 3. Rondo. Allegro [09:34]

Flute Concerto in G major, K.313/285c
04. 1. Allegro maestoso [09:39]
05. 2. Adagio ma non troppo [09:43]
06. 3. Rondeau. Tempo di Menuetto [07:53]

Bassoon Concerto in B-flat major, K.191/186e
07. 1. Allegro [07:11]
08. 2. Andante ma Adagio [07:39]
09. 3. Rondo. Tempo di Menuetto [04:23]

Personnel:

Alfred Prinz · Werner Tripp
Dietmar Zeman
Wiener Philharmoniker
Karl Böhm

Exact Audio Copy V1.0 beta 1 from 15. November 2010

EAC extraction logfile from 28. December 2010, 16:18

Wolfgang Amadeus Mozart / Clarinet Concerto, K.622; Flute Concerto, K.313; Bassoon Concerto, K.191

Used drive : TSSTcorpCD/DVDW SH-S182M Adapter: 0 ID: 1

Read mode : Secure
Utilize accurate stream : Yes
Defeat audio cache : Yes
Make use of C2 pointers : No

Read offset correction : 6
Overread into Lead-In and Lead-Out : No
Fill up missing offset samples with silence : Yes
Delete leading and trailing silent blocks : No
Null samples used in CRC calculations : Yes
Used interface : Installed external ASPI interface
Gap handling : Appended to previous track

Used output format : User Defined Encoder
Selected bitrate : 768 kBit/s
Quality : High
Add ID3 tag : No
Command line compressor : C:\Programme\Exact Audio Copy\FLAC\FLAC.EXE
Additional command line options : -V -8 -T "artist=%a" -T "title=%t" -T "album=%g" -T "date=%y" -T "tracknumber=%n" -T "genre=%m" %s


TOC of the extracted CD

Track | Start | Length | Start sector | End sector
––––––––––––––––––––––––––––-
1 | 0:00.32 | 13:05.00 | 32 | 58906
2 | 13:05.32 | 8:09.00 | 58907 | 95581
3 | 21:14.32 | 9:36.00 | 95582 | 138781
4 | 30:50.32 | 9:39.00 | 138782 | 182206
5 | 40:29.32 | 9:43.00 | 182207 | 225931
6 | 50:12.32 | 7:55.00 | 225932 | 261556
7 | 58:07.32 | 7:11.00 | 261557 | 293881
8 | 65:18.32 | 7:39.00 | 293882 | 328306
9 | 72:57.32 | 4:24.00 | 328307 | 348106


Track 1

Filename O:\Klassik\111 Years Of Deutsche Grammophon - The Collector's Edition 2 (56 CD)\08 - Böhm - Mozart - Wind Concertos\01 - Clarinet Concerto in A, K.622 - 1. Allegro.wav

Pre-gap length 0:00:02.32

Peak level 91.7 %
Extraction speed 5.5 X
Track quality 99.9 %
Test CRC FA4F00FB
Copy CRC FA4F00FB
Accurately ripped (confidence 16) [F672B68B]
Copy OK

Track 2

Filename O:\Klassik\111 Years Of Deutsche Grammophon - The Collector's Edition 2 (56 CD)\08 - Böhm - Mozart - Wind Concertos\02 - Clarinet Concerto in A, K.622 - 2. Adagio.wav

Peak level 80.2 %
Extraction speed 6.6 X
Track quality 100.0 %
Test CRC 6861A775
Copy CRC 6861A775
Accurately ripped (confidence 17) [4E4063B5]
Copy OK

Track 3

Filename O:\Klassik\111 Years Of Deutsche Grammophon - The Collector's Edition 2 (56 CD)\08 - Böhm - Mozart - Wind Concertos\03 - Clarinet Concerto in A, K.622 - 3. Rondo (Allegro).wav

Peak level 99.9 %
Extraction speed 7.4 X
Track quality 100.0 %
Test CRC 91F700B2
Copy CRC 91F700B2
Accurately ripped (confidence 17) [BCE61222]
Copy OK

Track 4

Filename O:\Klassik\111 Years Of Deutsche Grammophon - The Collector's Edition 2 (56 CD)\08 - Böhm - Mozart - Wind Concertos\04 - Flute Concerto No.1 in G, K.313 - 1. Allegro maestoso.wav

Pre-gap length 0:00:02.00

Peak level 84.1 %
Extraction speed 8.2 X
Track quality 100.0 %
Test CRC FB86075C
Copy CRC FB86075C
Accurately ripped (confidence 17) [BFC34261]
Copy OK

Track 5

Filename O:\Klassik\111 Years Of Deutsche Grammophon - The Collector's Edition 2 (56 CD)\08 - Böhm - Mozart - Wind Concertos\05 - Flute Concerto No.1 in G, K.313 - 2. Adagio non troppo.wav

Peak level 64.7 %
Extraction speed 8.0 X
Track quality 100.0 %
Test CRC 3E65CCC5
Copy CRC 3E65CCC5
Accurately ripped (confidence 17) [5D1A164C]
Copy OK

Track 6

Filename O:\Klassik\111 Years Of Deutsche Grammophon - The Collector's Edition 2 (56 CD)\08 - Böhm - Mozart - Wind Concertos\06 - Flute Concerto No.1 in G, K.313 - 3. Rondo (Tempo di Menuetto).wav

Peak level 81.3 %
Extraction speed 8.2 X
Track quality 100.0 %
Test CRC 0417B48B
Copy CRC 0417B48B
Accurately ripped (confidence 17) [04DBB9DD]
Copy OK

Track 7

Filename O:\Klassik\111 Years Of Deutsche Grammophon - The Collector's Edition 2 (56 CD)\08 - Böhm - Mozart - Wind Concertos\07 - Bassoon Concerto in B flat, K.191 - 1. Allegro.wav

Pre-gap length 0:00:02.00

Peak level 80.6 %
Extraction speed 7.9 X
Track quality 99.9 %
Test CRC D414D08D
Copy CRC D414D08D
Accurately ripped (confidence 17) [78527373]
Copy OK

Track 8

Filename O:\Klassik\111 Years Of Deutsche Grammophon - The Collector's Edition 2 (56 CD)\08 - Böhm - Mozart - Wind Concertos\08 - Bassoon Concerto in B flat, K.191 - 2. Andante ma adagio.wav

Peak level 51.9 %
Extraction speed 8.7 X
Track quality 100.0 %
Test CRC 5A650176
Copy CRC 5A650176
Accurately ripped (confidence 17) [769B034D]
Copy OK

Track 9

Filename O:\Klassik\111 Years Of Deutsche Grammophon - The Collector's Edition 2 (56 CD)\08 - Böhm - Mozart - Wind Concertos\09 - Bassoon Concerto in B flat, K.191 - 3. Rondo (Tempo di menuetto).wav

Peak level 67.5 %
Extraction speed 8.5 X
Track quality 99.9 %
Test CRC 89820E7D
Copy CRC 89820E7D
Accurately ripped (confidence 17) [2D8DF398]
Copy OK


All tracks accurately ripped

No errors occurred

End of status report

Verification date: 14.03.2011 23:28:01]
[Disc ID: 001d7fef-00d33ea7-87122109]
Pregap length 00:00:32.
Track [ CRC ] Status
01 [f672b68b] (26/53) Accurately ripped as in pressing(s) #1
02 [4e4063b5] (27/55) Accurately ripped as in pressing(s) #1
03 [bce61222] (27/55) Accurately ripped as in pressing(s) #1
04 [bfc34261] (27/55) Accurately ripped as in pressing(s) #1
05 [5d1a164c] (27/55) Accurately ripped as in pressing(s) #1
06 [04dbb9dd] (27/55) Accurately ripped as in pressing(s) #1
07 [78527373] (27/55) Accurately ripped as in pressing(s) #1
08 [769b034d] (27/55) Accurately ripped as in pressing(s) #1
09 [2d8df398] (27/55) Accurately ripped as in pressing(s) #1
Offsetted by 3:
01 [5fe1de53] (07/53) Accurately ripped as in pressing(s) #3
02 [9e244b77] (07/55) Accurately ripped as in pressing(s) #3
03 [e7e8d843] (07/55) Accurately ripped as in pressing(s) #3
04 [0f07b0ff] (07/55) Accurately ripped as in pressing(s) #3
05 [54459589] (07/55) Accurately ripped as in pressing(s) #3
06 [5bc9a413] (07/55) Accurately ripped as in pressing(s) #3
07 [d64419f1] (07/55) Accurately ripped as in pressing(s) #3
08 [4f9cc793] (07/55) Accurately ripped as in pressing(s) #3
09 [767906f5] (07/55) Accurately ripped as in pressing(s) #3
Offsetted by 235:
01 [0e4a8cab] (03/53) Accurately ripped as in pressing(s) #6
02 [d57d6421] (03/55) Accurately ripped as in pressing(s) #6
03 [0d1b46ce] (03/55) Accurately ripped as in pressing(s) #6
04 [7cc5c796] (03/55) Accurately ripped as in pressing(s) #6
05 [9b5b7bad] (03/55) Accurately ripped as in pressing(s) #6
06 [787090cc] (03/55) Accurately ripped as in pressing(s) #6
07 [61c11226] (03/55) Partial match to pressing(s) #5
08 [f6db9dfe] (03/55) Accurately ripped as in pressing(s) #6
09 [25ea7515] (03/55) Accurately ripped as in pressing(s) #6
Offsetted by 667:
01 [6788a12d] (03/53) Accurately ripped as in pressing(s) #5
02 [7a70d05a] (03/55) Accurately ripped as in pressing(s) #5
03 [4ec9266d] (03/55) Accurately ripped as in pressing(s) #5
04 [990a0513] (03/55) Accurately ripped as in pressing(s) #5
05 [b2069e7a] (03/55) Accurately ripped as in pressing(s) #5
06 [e08bb9be] (03/55) Accurately ripped as in pressing(s) #5
07 [e082e5b4] (03/55) Accurately ripped as in pressing(s) #5
08 [81a87bd9] (03/55) Accurately ripped as in pressing(s) #5
09 [4c176ca0] (03/55) Accurately ripped as in pressing(s) #5
Offsetted by 1334:
01 [1e168226] (09/53) Accurately ripped as in pressing(s) #2
02 [52646423] (10/55) Accurately ripped as in pressing(s) #2
03 [0b0201b4] (10/55) Accurately ripped as in pressing(s) #2
04 [ee42b701] (10/55) Accurately ripped as in pressing(s) #2
05 [b855f689] (10/55) Accurately ripped as in pressing(s) #2
06 [02a80c96] (10/55) Accurately ripped as in pressing(s) #2
07 [6ac814d6] (10/55) Accurately ripped as in pressing(s) #2
08 [1552ce4b] (10/55) Accurately ripped as in pressing(s) #2
09 [9dda6a2d] (10/55) Accurately ripped as in pressing(s) #2

Track [ CRC32 ] [W/O NULL] [ LOG ]
– [B64B2EAE] [7B4A6305]
01 [FA4F00FB] [54F1F0FF] CRC32
02 [6861A775] [9CC2FAE7] CRC32
03 [91F700B2] [4417FEDA] CRC32
04 [FB86075C] [92CD6AEF] CRC32
05 [3E65CCC5] [86F7A4AC] CRC32
06 [0417B48B] [6C6FD9FA] CRC32
07 [D414D08D] [BFDE74C4] CRC32
08 [5A650176] [4931E8C9] CRC32
09 [89820E7D] [F3E03498] CRC32

111 Years of Deutsche Grammophon. The Collectors' Edition 2 [Deutsche Grammophon, 000289 477 9142 3] - Part 1 RE-UP

–––––––––––––––––––––––––––––––––––––––––-

111 Years of Deutsche Grammophon. The Collectors' Edition 2 [Deutsche Grammophon, 000289 477 9142 3] - Part 1 RE-UP

CD-09 - Debussy: La Mer; 3 Nocturnes; Jeux; Rhapsodie pour clarinette

Tracklist:

01. 1. Nuages. Modere - Un peu anime [06:15]
02. 2. Fetes. Anime et tres rythme - Modere mais toujours tres rythme [06:31]
03. 3. Sirenes. Moderement anime (avec choeur de femmes) [09:39]
04. DPremiere Rhapsodie, pour orchestre avec clarinette principale. Reveusement lent [08:33]
05. DJeux (Poeme danse) [16:03]
06. 1. De l'aube a midi sur la mer. Tres lent [08:45]
07. 2. Jeux de vagues. Allegro dans un rythme tres souple [07:05]
08. 3. Dialogue du vent et de la mer. Anime et tumultueux [07:40]

Personnel:

Franklin Cohen, Klarinette
The Cleveland Orchestra Chorus
The Cleveland Orchestra
Pierre Boulez

Exact Audio Copy V1.0 beta 1 from 15. November 2010

EAC extraction logfile from 28. December 2010, 16:53

Claude Debussy / La Mer; 3 Nocturnes; Jeux; Rhapsodie pour clarinette

Used drive : TSSTcorpCD/DVDW SH-S182M Adapter: 0 ID: 1

Read mode : Secure
Utilize accurate stream : Yes
Defeat audio cache : Yes
Make use of C2 pointers : No

Read offset correction : 6
Overread into Lead-In and Lead-Out : No
Fill up missing offset samples with silence : Yes
Delete leading and trailing silent blocks : No
Null samples used in CRC calculations : Yes
Used interface : Installed external ASPI interface
Gap handling : Appended to previous track

Used output format : User Defined Encoder
Selected bitrate : 768 kBit/s
Quality : High
Add ID3 tag : No
Command line compressor : C:\Programme\Exact Audio Copy\FLAC\FLAC.EXE
Additional command line options : -V -8 -T "artist=%a" -T "title=%t" -T "album=%g" -T "date=%y" -T "tracknumber=%n" -T "genre=%m" %s


TOC of the extracted CD

Track | Start | Length | Start sector | End sector
––––––––––––––––––––––––––––-
1 | 0:00.33 | 6:15.00 | 33 | 28157
2 | 6:15.33 | 6:31.00 | 28158 | 57482
3 | 12:46.33 | 9:47.00 | 57483 | 101507
4 | 22:33.33 | 8:42.00 | 101508 | 140657
5 | 31:15.33 | 16:06.00 | 140658 | 213107
6 | 47:21.33 | 8:47.15 | 213108 | 252647
7 | 56:08.48 | 7:08.67 | 252648 | 284814
8 | 63:17.40 | 7:40.68 | 284815 | 319382


Track 1

Filename O:\Klassik\111 Years Of Deutsche Grammophon - The Collector's Edition 2 (56 CD)\09 - Boulez - Debussy\01 - Nocturnes - 1. Nuages.wav

Pre-gap length 0:00:02.33

Peak level 24.4 %
Extraction speed 5.0 X
Track quality 100.0 %
Test CRC 6BA43156
Copy CRC 6BA43156
Accurately ripped (confidence 9) [DC51A5A5]
Copy OK

Track 2

Filename O:\Klassik\111 Years Of Deutsche Grammophon - The Collector's Edition 2 (56 CD)\09 - Boulez - Debussy\02 - Nocturnes - 2. Fêtes.wav

Peak level 76.9 %
Extraction speed 5.8 X
Track quality 100.0 %
Test CRC 18E17937
Copy CRC 18E17937
Accurately ripped (confidence 9) [9A5E8D93]
Copy OK

Track 3

Filename O:\Klassik\111 Years Of Deutsche Grammophon - The Collector's Edition 2 (56 CD)\09 - Boulez - Debussy\03 - Nocturnes - 3. Sirènes.wav

Peak level 55.1 %
Extraction speed 6.4 X
Track quality 100.0 %
Test CRC 4DC7D644
Copy CRC 4DC7D644
Accurately ripped (confidence 9) [2550F5E0]
Copy OK

Track 4

Filename O:\Klassik\111 Years Of Deutsche Grammophon - The Collector's Edition 2 (56 CD)\09 - Boulez - Debussy\04 - Première Rhapsodie - Rêveusement lent.wav

Pre-gap length 0:00:07.00

Peak level 43.0 %
Extraction speed 6.3 X
Track quality 99.9 %
Test CRC 71E6D06E
Copy CRC 71E6D06E
Accurately ripped (confidence 9) [90610A05]
Copy OK

Track 5

Filename O:\Klassik\111 Years Of Deutsche Grammophon - The Collector's Edition 2 (56 CD)\09 - Boulez - Debussy\05 - Jeux (Poème dansé) - Très lent - Scherzando (Tempo initial).wav

Pre-gap length 0:00:09.00

Peak level 88.0 %
Extraction speed 7.6 X
Track quality 100.0 %
Test CRC AE23A581
Copy CRC AE23A581
Accurately ripped (confidence 9) [ABFD2E60]
Copy OK

Track 6

Filename O:\Klassik\111 Years Of Deutsche Grammophon - The Collector's Edition 2 (56 CD)\09 - Boulez - Debussy\06 - La Mer - 1. From Dawn till Noon on the Sea (De l'aube à midi sur la mer).wav

Pre-gap length 0:00:03.00

Peak level 89.3 %
Extraction speed 9.3 X
Track quality 100.0 %
Test CRC 0B2B8760
Copy CRC 0B2B8760
Accurately ripped (confidence 9) [413A8A15]
Copy OK

Track 7

Filename O:\Klassik\111 Years Of Deutsche Grammophon - The Collector's Edition 2 (56 CD)\09 - Boulez - Debussy\07 - La Mer - 2. Play of the Waves (Jeux de vagues).wav

Pre-gap length 0:00:02.15

Peak level 55.7 %
Extraction speed 9.5 X
Track quality 100.0 %
Test CRC 147ADFF6
Copy CRC 147ADFF6
Accurately ripped (confidence 9) [9A5595A2]
Copy OK

Track 8

Filename O:\Klassik\111 Years Of Deutsche Grammophon - The Collector's Edition 2 (56 CD)\09 - Boulez - Debussy\08 - La Mer - 3. Dialogue of the Wind and the Sea (Dialogue du vent et de la mer).wav

Pre-gap length 0:00:03.37

Peak level 99.9 %
Extraction speed 9.3 X
Track quality 99.9 %
Test CRC 87194292
Copy CRC 87194292
Accurately ripped (confidence 9) [B59980F8]
Copy OK


All tracks accurately ripped

No errors occurred

End of status report

[Verification date: 15.03.2011 0:01:58]
[Disc ID: 00155422-00918adf-8710a208]
Pregap length 00:00:33.
Track [ CRC ] Status
01 [dc51a5a5] (21/61) Accurately ripped as in pressing(s) #2
02 [9a5e8d93] (21/61) Accurately ripped as in pressing(s) #2
03 [2550f5e0] (21/61) Accurately ripped as in pressing(s) #2
04 [90610a05] (21/59) Accurately ripped as in pressing(s) #2
05 [abfd2e60] (21/61) Accurately ripped as in pressing(s) #2
06 [413a8a15] (21/59) Accurately ripped as in pressing(s) #2
07 [9a5595a2] (21/60) Accurately ripped as in pressing(s) #2
08 [b59980f8] (21/60) Accurately ripped as in pressing(s) #2
Offsetted by 664:
01 [85daad0f] (02/61) Accurately ripped as in pressing(s) #5
02 [90117c25] (02/61) Accurately ripped as in pressing(s) #5
03 [4cbb7c02] (02/61) Accurately ripped as in pressing(s) #5
04 [3d5f79e8] (04/59) Partial match to pressing(s) #3
05 [59609369] (02/61) Accurately ripped as in pressing(s) #5
06 [b34e3f0c] (02/59) Accurately ripped as in pressing(s) #5
07 [db2cbf58] (02/60) Accurately ripped as in pressing(s) #5
08 [fa11aa93] (02/60) Accurately ripped as in pressing(s) #5
Offsetted by 1328:
01 [1305fba1] (30/61) Accurately ripped as in pressing(s) #1
02 [c40f53b4] (30/61) Accurately ripped as in pressing(s) #1
03 [6906cd24] (30/61) Accurately ripped as in pressing(s) #1
04 [0970a62f] (30/59) Accurately ripped as in pressing(s) #1
05 [2a070e5f] (30/61) Accurately ripped as in pressing(s) #1
06 [49d1c099] (28/59) Accurately ripped as in pressing(s) #1
07 [d7e11cfc] (29/60) Accurately ripped as in pressing(s) #1
08 [56e34f35] (29/60) Accurately ripped as in pressing(s) #1

Track [ CRC32 ] [W/O NULL] [ LOG ]
– [6742BB27] [AF0B5C57]
01 [6BA43156] [AEB01E76] CRC32
02 [18E17937] [52559B09] CRC32
03 [4DC7D644] [7F03E03F] CRC32
04 [71E6D06E] [9766E43E] CRC32
05 [AE23A581] [59B040A2] CRC32
06 [0B2B8760] [50B75F18] CRC32
07 [147ADFF6] [13B5B821] CRC32
08 [87194292] [BF0AD39E] CRC32

111 Years of Deutsche Grammophon. The Collectors' Edition 2 [Deutsche Grammophon, 000289 477 9142 3] - Part 1 RE-UP

–––––––––––––––––––––––––––––––––––––––––-

111 Years of Deutsche Grammophon. The Collectors' Edition 2 [Deutsche Grammophon, 000289 477 9142 3] - Part 1 RE-UP

CD-10 - Brahms: Symphony No.4 / Strauss, R.: Tod und Verklärung, Op.24

Tracklist:

Johannes Brahms - Symphony No. 4 in E minor
01. Allegro non troppo [12:04]
02. Andante moderato [12:43]
03. Allegro giocoso - Poco meno [05:34]
04. Allegro energico e passionato [09:12]
05. Richard Strauss - Death and Transfiguration [23:25]

Personnel:

Berliner Philharmoniker, Victor de Sabata

Exact Audio Copy V1.0 beta 1 from 15. November 2010

EAC extraction logfile from 28. December 2010, 17:26

Johannes Brahms / Brahms: Symphony No.4 - Strauss, R.: Tod und Verklärung, Op.24

Used drive : TSSTcorpCD/DVDW SH-S182M Adapter: 0 ID: 1

Read mode : Secure
Utilize accurate stream : Yes
Defeat audio cache : Yes
Make use of C2 pointers : No

Read offset correction : 6
Overread into Lead-In and Lead-Out : No
Fill up missing offset samples with silence : Yes
Delete leading and trailing silent blocks : No
Null samples used in CRC calculations : Yes
Used interface : Installed external ASPI interface
Gap handling : Appended to previous track

Used output format : User Defined Encoder
Selected bitrate : 768 kBit/s
Quality : High
Add ID3 tag : No
Command line compressor : C:\Programme\Exact Audio Copy\FLAC\FLAC.EXE
Additional command line options : -V -8 -T "artist=%a" -T "title=%t" -T "album=%g" -T "date=%y" -T "tracknumber=%n" -T "genre=%m" %s


TOC of the extracted CD

Track | Start | Length | Start sector | End sector
––––––––––––––––––––––––––––-
1 | 0:00.33 | 12:09.12 | 33 | 54719
2 | 12:09.45 | 12:49.40 | 54720 | 112434
3 | 24:59.10 | 5:38.35 | 112435 | 137819
4 | 30:37.45 | 9:22.00 | 137820 | 179969
5 | 39:59.45 | 23:25.25 | 179970 | 285369


Track 1

Filename O:\Klassik\111 Years Of Deutsche Grammophon - The Collector's Edition 2 (56 CD)\10 - De Sabata - Brahms - Strauss\01 - Johannes Brahms- Symphony No.4 in E minor, Op.98 - 1. Allegro non troppo.wav

Pre-gap length 0:00:02.33

Peak level 87.7 %
Extraction speed 5.1 X
Track quality 100.0 %
Test CRC 361C999D
Copy CRC 361C999D
Accurately ripped (confidence 4) [FDF862FD]
Copy OK

Track 2

Filename O:\Klassik\111 Years Of Deutsche Grammophon - The Collector's Edition 2 (56 CD)\10 - De Sabata - Brahms - Strauss\02 - Johannes Brahms- Symphony No.4 in E minor, Op.98 - 2. Andante moderato.wav

Pre-gap length 0:00:04.63

Peak level 88.4 %
Extraction speed 6.2 X
Track quality 100.0 %
Test CRC 57F9EEDF
Copy CRC 57F9EEDF
Accurately ripped (confidence 4) [380CA35A]
Copy OK

Track 3

Filename O:\Klassik\111 Years Of Deutsche Grammophon - The Collector's Edition 2 (56 CD)\10 - De Sabata - Brahms - Strauss\03 - Johannes Brahms- Symphony No.4 in E minor, Op.98 - 3. Allegro giocoso - Poco meno presto - Tempo I.wav

Pre-gap length 0:00:06.08

Peak level 89.1 %
Extraction speed 5.9 X
Track quality 100.0 %
Test CRC B4605DE5
Copy CRC B4605DE5
Accurately ripped (confidence 4) [0CEA0377]
Copy OK

Track 4

Filename O:\Klassik\111 Years Of Deutsche Grammophon - The Collector's Edition 2 (56 CD)\10 - De Sabata - Brahms - Strauss\04 - Johannes Brahms- Symphony No.4 in E minor, Op.98 - 4. Allegro energico e passionato - Più allegro.wav

Pre-gap length 0:00:03.50

Peak level 89.5 %
Extraction speed 7.2 X
Track quality 100.0 %
Test CRC D3F5F879
Copy CRC D3F5F879
Accurately ripped (confidence 4) [64E820E9]
Copy OK

Track 5

Filename O:\Klassik\111 Years Of Deutsche Grammophon - The Collector's Edition 2 (56 CD)\10 - De Sabata - Brahms - Strauss\05 - Richard Strauss- Tod und Verklärung, Op.24.wav

Pre-gap length 0:00:09.30

Peak level 82.9 %
Extraction speed 8.9 X
Track quality 100.0 %
Test CRC 7A156DCE
Copy CRC 7A156DCE
Accurately ripped (confidence 4) [8FC00723]
Copy OK


All tracks accurately ripped

No errors occurred

End of status report

[Verification date: 15.03.2011 0:03:13]
[Disc ID: 000bc12c-00371610-300edc05]
Pregap length 00:00:33.
Track [ CRC ] Status
01 [fdf862fd] (13/16) Accurately ripped as in pressing(s) #1
02 [380ca35a] (13/16) Accurately ripped as in pressing(s) #1
03 [0cea0377] (13/16) Accurately ripped as in pressing(s) #1
04 [64e820e9] (13/16) Accurately ripped as in pressing(s) #1
05 [8fc00723] (13/16) Accurately ripped as in pressing(s) #1

Track [ CRC32 ] [W/O NULL] [ LOG ]
– [A5B09316] [85EEA3B7]
01 [361C999D] [CD509A15] CRC32
02 [57F9EEDF] [1C3CA7ED] CRC32
03 [B4605DE5] [4EB1E760] CRC32
04 [D3F5F879] [A8FD393D] CRC32
05 [7A156DCE] [01296E0D] CRC32

111 Years of Deutsche Grammophon. The Collectors' Edition 2 [Deutsche Grammophon, 000289 477 9142 3] - Part 1 RE-UP

======================

All thanks go to the original releaser … / Special thanks to Redeggs

Download 111 Years of Deutsche Grammophon. The Collectors' Edition 2 (2010):