Subcategories

21 Guns - Salute (1992) [Japanese Ed.]

Posted By: Andi_Deris
21 Guns - Salute (1992) [Japanese Ed.]

21 Guns - Salute (1992) [Japanese Ed.]
EAC Rip | FLAC: Image+Cue+Log | 460 Mb | MP3 CBR 320 kbps | 152 Mb | Scans | 40 Mb | Time: 01:00:16
BMG Victor Inc. | BVCP-210
Melodic Hard Rock, AOR

Salute is the debut album by AOR band 21 Guns. It was released in 1992. Artwork on the album was directed by Hugh Syme. Legendary debut from ex-THIN LIZZY guitarist Scott Gorham, and vocalist Thomas La Verdi. Memorable songs (from strong rockers to emotional ballads), huge harmonies, great hooks and a big/polished production is what you can expect from this classic recording. Similar to 80s Arena Rock acts like GIANT and TYKETTO, with touches of classy AOR a'la STRANGEWAYS and DARE. A great disc!

21 Guns - Salute (1992) [Japanese Ed.]




21 Guns - Salute (1992) [Japanese Ed.]


Track Listing

01. Knee Deep (4:06)
02. These Eyes (4:17)
03. Walking (3:46)
04. Marching In Time (4:07)
05. The Rain (4:30)
06. Little Sister (4:14)
07. Pays Off Big (4:25)
08. Just A Wish (4:10)
09. Battered And Bruised (3:14)
10. Jungleland (5:10)
11. Tell Me (4:26)
12. No Way Out (4:29)

Bonus tracks for Japan
13. Cold Heart (4:24)
14. Blood Gone Bad (4:58)

Produced by Chris Lord-Alge

The Band

• Scott Gorham (Thin Lizzy, The Greedies, Asia, Max Bacon, Far Corporation, Supertramp, Pat Travers, True Brits, Yves Choir, Phenomena, Black Star Riders) - guitars, backing vocals
• Leif Johansen (Far Corporation, Greenhouze, Phenomena) - bass guitar, keyboards, backing vocals
• Thomas La Verdi - lead vocals
• Mike Sturgis (Max Bacon, Greenhouze, Psycho Motel) - drums and percussions

*****
• Kim Bullard - piano

21 Guns - Salute (1992) [Japanese Ed.]


Exact Audio Copy V0.99 prebeta 5 from 4. May 2009

EAC extraction logfile from 10. May 2010, 21:06

21 GUNS / Salute

Used drive : PIONEER DVD-RW DVR-215D Adapter: 3 ID: 0

Read mode : Secure
Utilize accurate stream : Yes
Defeat audio cache : Yes
Make use of C2 pointers : No

Read offset correction : 48
Overread into Lead-In and Lead-Out : No
Fill up missing offset samples with silence : Yes
Delete leading and trailing silent blocks : No
Null samples used in CRC calculations : Yes
Used interface : Native Win32 interface for Win NT & 2000

Used output format : User Defined Encoder
Selected bitrate : 768 kBit/s
Quality : High
Add ID3 tag : No
Command line compressor : C:\Program Files\Exact Audio Copy\FLAC\FLAC.EXE
Additional command line options : -8 -V %s


TOC of the extracted CD

Track | Start | Length | Start sector | End sector
––––––––––––––––––––––––––––-
1 | 0:00.37 | 4:06.22 | 37 | 18508
2 | 4:06.59 | 4:17.58 | 18509 | 37841
3 | 8:24.42 | 3:46.50 | 37842 | 54841
4 | 12:11.17 | 4:07.17 | 54842 | 73383
5 | 16:18.34 | 4:30.70 | 73384 | 93703
6 | 20:49.29 | 4:14.08 | 93704 | 112761
7 | 25:03.37 | 4:25.60 | 112762 | 132696
8 | 29:29.22 | 4:10.40 | 132697 | 151486
9 | 33:39.62 | 3:14.37 | 151487 | 166073
10 | 36:54.24 | 5:10.05 | 166074 | 189328
11 | 42:04.29 | 4:26.18 | 189329 | 209296
12 | 46:30.47 | 4:29.02 | 209297 | 229473
13 | 50:59.49 | 4:24.15 | 229474 | 249288
14 | 55:23.64 | 4:58.63 | 249289 | 271701


Range status and errors

Selected range

Filename C:\lossless\my Rips\21 Guns\Salute (Japan)\21 GUNS - Salute.wav

Peak level 97.9 %
Range quality 100.0 %
Test CRC 2418F8AE
Copy CRC 2418F8AE
Copy OK

No errors occurred


AccurateRip summary

Track 1 accurately ripped (confidence 1) [CFB42203]
Track 2 accurately ripped (confidence 1) [3DDAFD83]
Track 3 accurately ripped (confidence 1) [55AF8A4D]
Track 4 accurately ripped (confidence 1) [081C4958]
Track 5 accurately ripped (confidence 1) [61061E3F]
Track 6 accurately ripped (confidence 1) [ED2187A2]
Track 7 accurately ripped (confidence 1) [68E5FA0E]
Track 8 accurately ripped (confidence 1) [8B1AFB2F]
Track 9 accurately ripped (confidence 1) [3CB9FEDC]
Track 10 accurately ripped (confidence 1) [9CEAD9E0]
Track 11 accurately ripped (confidence 1) [27B72D59]
Track 12 accurately ripped (confidence 1) [3118216B]
Track 13 accurately ripped (confidence 1) [21959F17]
Track 14 accurately ripped (confidence 1) [DC7A1571]

All tracks accurately ripped

End of status report


Many thanks to the original uploader: boets