Subcategories

38 Special - Rockin' Into The Night (1979) {1986, Reissue, Japan}

Posted By: popsakov
38 Special - Rockin' Into The Night (1979) {1986, Reissue, Japan}

38 Special - Rockin' Into The Night (1979) {1986, Reissue, Japan}
EAC Rip | FLAC (Img) + Cue + Log ~ 265 Mb | MP3 CBR320 ~ 126 Mb
Scans Included (JPG, 600 dpi) | RAR 5% Recovery
Southern Rock | A&M Records / Canyon Records #D32Y3066

Rockin' into the Night is the third studio album by the southern rock band 38 Special, released in 1980. With this album, 38 Special incorporates some arena rock elements into its sound. The title track, written by three members of Survivor, became the band's first big hit (peaking at #43 during a nine-week run on the Billboard Hot 100 singles chart), and marked the first of many songs Jim Peterik would write for and with the band.
~ Wiki

By its third album, .38 Special discovered how to fuse fun-lovin' Southern rock with a formula that would bring the band commercial attention. Even though the album failed to put a single into the Top 40, the songs gather more steam than the group's previous attempts and begin to show the talents of individual members, turning some of the attention away from the novelty of sporting two drummers. "Rockin' into the Night" is a clean-shaven, built-for-radio tune, boosted by Don Barnes and Jeff Carlisi's indiscrete guitar work, while "Stone Cold Believer" rocks a little harder with its gear-shifting guitar riff. But the evidence that .38 Special was progressing extends beyond the first two cuts. Tracks such as "Take Me Through the Night," "The Love That I've Lost," and "Turn It On" are sturdy, middle-of-the-road rockers, and they proved that Van Zant was indeed capable of giving the band's material enough vocal gusto to eventually break through. Rockin' into the Night cracked the Top 60 on the album charts, and by the next year .38 Special had its first big hit with "Hold on Loosely" from 1981's Wild Eyed Southern Boys.
~ Mike DeGagne, All Music

***************

38 Special - Rockin' Into The Night (1979) {1986, Reissue, Japan}

Track List:

01. Rockin' Into The Night [4:01]
02. Stone Cold Believer [4:16]
03. Take Me Through The Night [4:13]
04. Money Honey [3:10]
05. The Love That I've Lost [4:36]
06. You're The Captain [4:26]
07. Robin Hood [4:44]
08. You Got The Deal [4:56]
09. Turn It On [4:35]

Personnel:
Donnie Van Zant - lead & backing vocals
Don Barnes - electric & acoustic guitars, lead & backing vocals
Jeff Carlisli - elactric & slide guitars
Larry Junstrom – bass & guitars
Jack Grondin - drums & percussion
Steve Brookins – drums & percussion
additional musicians:
Bill Powell - piano
Terry Emery - piano
Dale Krantz - backing vocals

Exact Audio Copy V1.0 beta 3 from 29. August 2011

EAC extraction logfile from 26. February 2017, 11:00

38 Special / Rockin' Into The Night

Used drive : SlimtypeDVD A DS8A5SH Adapter: 0 ID: 0

Read mode : Secure
Utilize accurate stream : Yes
Defeat audio cache : Yes
Make use of C2 pointers : No

Read offset correction : 6
Overread into Lead-In and Lead-Out : No
Fill up missing offset samples with silence : Yes
Delete leading and trailing silent blocks : No
Null samples used in CRC calculations : Yes
Used interface : Installed external ASPI interface

Used output format : User Defined Encoder
Selected bitrate : 320 kBit/s
Quality : High
Add ID3 tag : No
Command line compressor : C:\Program Files (x86)\Exact Audio Copy\Flac\flac.exe
Additional command line options : -V -8 -T "Date=%year%" -T "Genre=%genre%" %source%


TOC of the extracted CD

Track | Start | Length | Start sector | End sector
––––––––––––––––––––––––––––-
1 | 0:00.00 | 4:01.07 | 0 | 18081
2 | 4:01.07 | 4:16.05 | 18082 | 37286
3 | 8:17.12 | 4:12.53 | 37287 | 56239
4 | 12:29.65 | 3:10.05 | 56240 | 70494
5 | 15:39.70 | 4:35.47 | 70495 | 91166
6 | 20:15.42 | 4:26.25 | 91167 | 111141
7 | 24:41.67 | 4:44.18 | 111142 | 132459
8 | 29:26.10 | 4:55.70 | 132460 | 154654
9 | 34:22.05 | 4:35.05 | 154655 | 175284


Range status and errors

Selected range

Filename D:\My Music\38 Special - 1979 Rockin' Into The Night\38 Special - Rockin' Into The Night.wav

Peak level 95.9 %
Extraction speed 1.6 X
Range quality 100.0 %
Test CRC D9BF98F0
Copy CRC D9BF98F0
Copy OK

No errors occurred


AccurateRip summary

Track 1 not present in database
Track 2 not present in database
Track 3 not present in database
Track 4 not present in database
Track 5 not present in database
Track 6 not present in database
Track 7 not present in database
Track 8 not present in database
Track 9 not present in database

None of the tracks are present in the AccurateRip database

End of status report

==== Log checksum D79FC75BB1D34324E5F397DFEC2579693B04A6621704B665E77ECDF64AD5E0DE ====

foobar2000 1.2.6 / Dynamic Range Meter 1.1.1
log date: 2017-03-10 00:56:48

––––––––––––––––––––––––––––––––––––––––
Analyzed: 38 Special / Rockin' Into The Night
––––––––––––––––––––––––––––––––––––––––

DR Peak RMS Duration Track
––––––––––––––––––––––––––––––––––––––––
DR13 -2.00 dB -17.29 dB 4:01 01-Rockin' Into The Night
DR12 -1.20 dB -16.16 dB 4:16 02-Stone Cold Believer
DR13 -1.45 dB -17.69 dB 4:13 03-Take Me Through The Night
DR14 -1.48 dB -17.67 dB 3:10 04-Money Honey
DR12 -1.42 dB -16.60 dB 4:36 05-The Love That I've Lost
DR12 -1.14 dB -17.82 dB 4:26 06-You're The Captain
DR13 -1.05 dB -17.17 dB 4:44 07-Robin Hood
DR14 -0.36 dB -17.65 dB 4:56 08-You Got The Deal
DR11 -2.33 dB -16.45 dB 4:35 09-Turn It On
––––––––––––––––––––––––––––––––––––––––

Number of tracks: 9
Official DR value: DR13

Samplerate: 44100 Hz
Channels: 2
Bits per sample: 16
Bitrate: 796 kbps
Codec: FLAC
================================================================================

[CUETools log; Date: 10.03.2017 0:57:01; Version: 2.1.5]
[CTDB TOCID: 4nkdz3GA5RbWSMyNom_3ErQr3T8-] disk not present in database.
[AccurateRip ID: 000cebdd-005f7122-79092109] found.
Track [ CRC | V2 ] Status
01 [2eda28e0|d717fb24] (0+1/1) Accurately ripped
02 [7e5c6c76|059485b3] (0+1/1) Accurately ripped
03 [d0619445|02776886] (0+1/1) Accurately ripped
04 [b796698d|f0041bff] (0+1/1) Accurately ripped
05 [60c44835|3132d763] (0+1/1) Accurately ripped
06 [f511110c|583e84e0] (0+1/1) Accurately ripped
07 [b887008c|3a7d09f1] (0+1/1) Accurately ripped
08 [b65b6dc7|1efb8103] (0+1/1) Accurately ripped
09 [207e274f|3861eea4] (0+1/1) Accurately ripped

Track Peak [ CRC32 ] [W/O NULL] [ LOG ]
– 95,9 [D9BF98F0] [D0CDD93F] CRC32
01 79,4 [E2C66979] [9EBCB433]
02 87,0 [14D9AE0A] [F27E4943]
03 84,6 [47CCB049] [CBD7AAFF]
04 84,3 [007B38FB] [0F7C486F]
05 84,9 [FB31A0A8] [36B65649]
06 87,6 [5D5EA46E] [A7CBD8EB]
07 88,6 [017963F0] [4B35F2D7]
08 95,9 [1B5C67DC] [14CF1E0F]
09 76,4 [C19CFD70] [7A0F816F]

38 Special - Rockin' Into The Night (1979) {1986, Reissue, Japan}

38 Special - Rockin' Into The Night (1979) {1986, Reissue, Japan}

See also:
38 Special - Flashback (1987)

All thanks go to kolushew

> Visit my blog <