Subcategories

Eddie Fisher - ...& The Next One Hundred Years (1970) {2006 Verve Music Group}

Posted By: TestTickles
Eddie Fisher - ...& The Next One Hundred Years (1970) {2006 Verve Music Group}

Eddie Fisher - …& The Next One Hundred Years (1970) {2006 Verve Music Group}
EAC Rip | FLAC with CUE and log | scans | 201 mb
MP3 CBR 320kbps | RAR | 92 mb
Genre: jazz

Eddie Fisher & The Next One Hundred Years is a 1970 album by American jazz guitarist Eddie Fisher. Originally released by Chess Records subsidiary Cadet, this was remastered and reissued in 2006 by Verve Music Group as part of the Chess Originals series.
What a great record! Why isn't this on the radio? I have to admit until now my favorite masters of jazz guitar were Grant Green and Wes Montgomery! Now I can add Eddie Fisher to that list! 'Eddie Fisher & the Next One Hundred Years' is a wonderful fusion of jazz funk and classical in the mix. I really like "Beautiful Things" because the arrangement is off the richter! This one song starts with classical violin and gives you sort of a smooth jazz guitar groove and then it ends with the funkiest guitar licks this side of the galaxy. This CD is not of this earth. There are some really enjoyable and intriguing moments on this recording. I also like the smoker "Jeremiah Pucket," with its sassy groove and amazing wah-wah guitar. This is a real kick ass record. It's easily one of the top 10 releases so far this year.

Eddie Fisher - ...& The Next One Hundred Years (1970) {2006 Verve Music Group}

1. Jeremiah Pucket (4:42)
2. Land Of Our Father (5:15)
3. Either Or (5:44)
4. Another Episode (In the Continuing Story of Zeke & the Man) (2:55)
5. Beautiful Things (12:04)
6. East St. Louis Blues (4:17)

Eddie Fisher-guitar, whistle (track 6)
James Matthews-piano
Raymond Eldridge, Jr.-bass
Johnny Johnson-drums
Christina Fisher-tambourine (track 6)
Richard Nedler-violin (track 5)

Produced by Eddie Fisher
Recorded 1970 at Archway Studios, St. Louis, Missouri
Remastered by Bob Irwin & Jayme Pieruzzi

EAC extraction logfile from 22. September 2006, 19:41 for CD
Eddie Fisher / & The Next One Hundred Years

Used drive : PIONEER DVD-RW DVR-109 Adapter: 1 ID: 0
Read mode : Secure with NO C2, accurate stream, disable cache
Read offset correction : 48
Overread into Lead-In and Lead-Out : No

Used output format : C:\Program Files\flac-1.1.2-win\bin\flac.exe (User Defined Encoder)
320 kBit/s
Additional command line options : -5 -V -T "ARTIST=%a" -T "TITLE=%t" -T "ALBUM=%g" -T "DATE=%y" -T "TRACKNUMBER=%n" -T "GENRE=%m" -T "COMMENT=EAC Flac 1.1.2 -5" %s

Other options :
Fill up missing offset samples with silence : Yes
Delete leading and trailing silent blocks : No
Native Win32 interface for Win NT & 2000


Track 1
Filename C:\FLAC\Eddie Fisher - & The Next One Hundred Years - s-t (1970) [FLAC] {2006 Verve Music Group}\01 - Jeremiah Puckett.wav

Pre-gap length 0:00:02.00

Peak level 100.0 %
Track quality 100.0 %
Test CRC A93D80B0
Copy CRC A93D80B0
Copy OK

Track 2
Filename C:\FLAC\Eddie Fisher - & The Next One Hundred Years - s-t (1970) [FLAC] {2006 Verve Music Group}\02 - Land of Our Father.wav

Pre-gap length 0:00:02.57

Peak level 97.0 %
Track quality 100.0 %
Test CRC 29DBE6E1
Copy CRC 29DBE6E1
Copy OK

Track 3
Filename C:\FLAC\Eddie Fisher - & The Next One Hundred Years - s-t (1970) [FLAC] {2006 Verve Music Group}\03 - Either Or.wav

Pre-gap length 0:00:04.04

Peak level 86.9 %
Track quality 99.9 %
Test CRC 91D5E620
Copy CRC 91D5E620
Copy OK

Track 4
Filename C:\FLAC\Eddie Fisher - & The Next One Hundred Years - s-t (1970) [FLAC] {2006 Verve Music Group}\04 - Another Episode (In the Continuing Story of Zeke and the Man).wav

Pre-gap length 0:00:03.94

Peak level 88.0 %
Track quality 99.9 %
Test CRC 6130C444
Copy CRC 6130C444
Copy OK

Track 5
Filename C:\FLAC\Eddie Fisher - & The Next One Hundred Years - s-t (1970) [FLAC] {2006 Verve Music Group}\05 - Beautiful Things.wav

Pre-gap length 0:00:03.72

Peak level 94.4 %
Track quality 100.0 %
Test CRC 41820392
Copy CRC 41820392
Copy OK

Track 6
Filename C:\FLAC\Eddie Fisher - & The Next One Hundred Years - s-t (1970) [FLAC] {2006 Verve Music Group}\06 - East St. Louis Blues.wav

Pre-gap length 0:00:04.25

Peak level 99.0 %
Track quality 100.0 %
Test CRC 87BCA56C
Copy CRC 87BCA56C
Copy OK

No errors occured


End of status report


Eddie Fisher - ...& The Next One Hundred Years (1970) {2006 Verve Music Group}


Thank you to the original uploader.